VA - White Christmas (1993) {Charly}


VA - White Christmas (1993) {Charly}
EAC Rip | FLAC with CUE and log | scans | 182 mb
MP3 CBR 320kbps | RAR | 135 mb
Genre: Christmas, pop jazz, vocal jazz, classical, jazz

The Charly label released a compilation CD of Christmas music in 1993 called White Christmas. Some of the people featured include Bing Crosby, Vera Lynn, Fats Waller, and Benny Goodman.


01. Bing Crosby - White Christmas
02. Lew Stone & His Band - Winter Wonderland
03. Vera Lynn - The Little Boy That Santa Claus Forgot
04. Archie Lewis & Geraldo Strings - Silent Night
05. Henry Hall & The BBC Dance Orchestra - Santa Claus Express
06. Cyril Grantham with Geraldo & His Orchestra - I'm Sending A Letter To Santa Claus
07. Henry Hall & The BBC Dance Orchestra - Does Santa Claus Sleep With His Whiskers
08. Walt Bingham & His Orchestra - I'm Going Home For Christmas
09. Fats Waller & His Rhythm - Swingin' Them Jingle Bells
10. Benny Goodman - Santa Claus Came In The Spring
11. Henry Hall & The BBC Dance Orchestra - The Fairy On The Christmas Tree
12. Glenn Miller & His Orchestra - Jingle Bells
13. The Rocky Mountaineers - Christmas In The Rockies (Medley)
14. The Fleet Street Choir - God Rest You Merry Gentlemen
15. The Fleet Street Choir - While Shepherds Watched
16. St. Brannon's C.D.S. Choir - The Good King Wenchelas
17. St. Brannon's C.D.S. Choir - The First Nöel
18. Master James Phelan - O Come All Ye Faithfull
19. Archie Lewis & Geraldo Strings - White Christmas
20. Bing Crosby - Let's Start The New Year Right

Exact Audio Copy V1.1 from 23. June 2015

EAC extraction logfile from 1. December 2016, 11:46

Various Artists / White Christmas

Used drive : TEAC DVD-ROM DV-28SW Adapter: 1 ID: 0

Read mode : Secure
Utilize accurate stream : Yes
Defeat audio cache : Yes
Make use of C2 pointers : No

Read offset correction : 6
Overread into Lead-In and Lead-Out : No
Fill up missing offset samples with silence : Yes
Delete leading and trailing silent blocks : No
Null samples used in CRC calculations : Yes
Used interface : Native Win32 interface for Win NT & 2000
Gap handling : Appended to previous track

Used output format : Internal WAV Routines
Sample format : 44.100 Hz; 16 Bit; Stereo


TOC of the extracted CD

Track | Start | Length | Start sector | End sector
––––––––––––––––––––––––––––-
1 | 0:00.33 | 3:06.15 | 33 | 13997
2 | 3:06.48 | 3:03.35 | 13998 | 27757
3 | 6:10.08 | 2:54.10 | 27758 | 40817
4 | 9:04.18 | 2:59.67 | 40818 | 54309
5 | 12:04.10 | 3:11.63 | 54310 | 68697
6 | 15:15.73 | 3:29.10 | 68698 | 84382
7 | 18:45.08 | 3:12.20 | 84383 | 98802
8 | 21:57.28 | 2:58.57 | 98803 | 112209
9 | 24:56.10 | 3:02.35 | 112210 | 125894
10 | 27:58.45 | 3:11.65 | 125895 | 140284
11 | 31:10.35 | 3:01.38 | 140285 | 153897
12 | 34:11.73 | 3:27.10 | 153898 | 169432
13 | 37:39.08 | 7:00.27 | 169433 | 200959
14 | 44:39.35 | 3:13.38 | 200960 | 215472
15 | 47:52.73 | 2:29.07 | 215473 | 226654
16 | 50:22.05 | 2:50.15 | 226655 | 239419
17 | 53:12.20 | 1:48.35 | 239420 | 247554
18 | 55:00.55 | 2:59.55 | 247555 | 261034
19 | 58:00.35 | 1:23.10 | 261035 | 267269
20 | 59:23.45 | 2:38.63 | 267270 | 279182


Track 1

Filename C:My DocumentsMy FLACVA - White Christmas (1993) [FLAC] {Charly}1 - Bing Crosby - White Christmas.wav

Pre-gap length 0:00:02.33

Peak level 81.6 %
Extraction speed 2.6 X
Track quality 100.0 %
Test CRC 5F26E57D
Copy CRC 5F26E57D
Accurately ripped (confidence 1) [0474C2D3] (AR v2)
Copy OK

Track 2

Filename C:My DocumentsMy FLACVA - White Christmas (1993) [FLAC] {Charly}2 - Lew Stone & His Band - Winter Wonderland.wav

Pre-gap length 0:00:02.63

Peak level 86.0 %
Extraction speed 2.8 X
Track quality 100.0 %
Test CRC D0630C45
Copy CRC D0630C45
Accurately ripped (confidence 1) [17279DD5] (AR v2)
Copy OK

Track 3

Filename C:My DocumentsMy FLACVA - White Christmas (1993) [FLAC] {Charly}3 - Vera Lynn - The Little Boy That Santa Claus Forgot.wav

Pre-gap length 0:00:02.63

Peak level 79.0 %
Extraction speed 3.0 X
Track quality 100.0 %
Test CRC 59B14B28
Copy CRC 59B14B28
Accurately ripped (confidence 1) [A70CF457] (AR v2)
Copy OK

Track 4

Filename C:My DocumentsMy FLACVA - White Christmas (1993) [FLAC] {Charly}4 - Archie Lewis & Geraldo Strings - Silent Night.wav

Pre-gap length 0:00:02.63

Peak level 79.1 %
Extraction speed 2.6 X
Track quality 99.9 %
Test CRC BB7DFDF8
Copy CRC BB7DFDF8
Accurately ripped (confidence 1) [C4BE4A86] (AR v2)
Copy OK

Track 5

Filename C:My DocumentsMy FLACVA - White Christmas (1993) [FLAC] {Charly}5 - Henry Hall & The BBC Dance Orchestra - Santa Claus Express.wav

Pre-gap length 0:00:02.62

Peak level 99.1 %
Extraction speed 3.5 X
Track quality 100.0 %
Test CRC 5BE7AB97
Copy CRC 5BE7AB97
Accurately ripped (confidence 1) [D4195010] (AR v2)
Copy OK

Track 6

Filename C:My DocumentsMy FLACVA - White Christmas (1993) [FLAC] {Charly}6 - Cyril Grantham with Geraldo & His Orchestra - I'm Sending A Letter To Santa Claus.wav

Pre-gap length 0:00:02.63

Peak level 89.7 %
Extraction speed 3.1 X
Track quality 99.9 %
Test CRC 2065F6C7
Copy CRC 2065F6C7
Accurately ripped (confidence 1) [0BCDB2CA] (AR v2)
Copy OK

Track 7

Filename C:My DocumentsMy FLACVA - White Christmas (1993) [FLAC] {Charly}7 - Henry Hall & The BBC Dance Orchestra - Does Santa Claus Sleep With His Whiskers.wav

Pre-gap length 0:00:02.63

Peak level 86.9 %
Extraction speed 3.8 X
Track quality 100.0 %
Test CRC E2BF19C7
Copy CRC E2BF19C7
Accurately ripped (confidence 1) [6C203E30] (AR v2)
Copy OK

Track 8

Filename C:My DocumentsMy FLACVA - White Christmas (1993) [FLAC] {Charly}8 - Walt Bingham & His Orchestra - I'm Going Home For Christmas.wav

Pre-gap length 0:00:02.63

Peak level 100.0 %
Extraction speed 4.0 X
Track quality 100.0 %
Test CRC 9BF852CB
Copy CRC 9BF852CB
Accurately ripped (confidence 1) [48ADA07D] (AR v2)
Copy OK

Track 9

Filename C:My DocumentsMy FLACVA - White Christmas (1993) [FLAC] {Charly}9 - Fats Waller & His Rhythm - Swingin' Them Jingle Bells.wav

Pre-gap length 0:00:02.62

Peak level 81.1 %
Extraction speed 4.1 X
Track quality 100.0 %
Test CRC FA2F7D42
Copy CRC FA2F7D42
Accurately ripped (confidence 1) [2B2732F5] (AR v2)
Copy OK

Track 10

Filename C:My DocumentsMy FLACVA - White Christmas (1993) [FLAC] {Charly}10 - Benny Goodman - Santa Claus Came In The Spring.wav

Pre-gap length 0:00:02.62

Peak level 90.8 %
Extraction speed 3.5 X
Track quality 99.9 %
Test CRC 8360EA63
Copy CRC 8360EA63
Accurately ripped (confidence 1) [693326FA] (AR v2)
Copy OK

Track 11

Filename C:My DocumentsMy FLACVA - White Christmas (1993) [FLAC] {Charly}11 - Henry Hall & The BBC Dance Orchestra - The Fairy On The Christmas Tree.wav

Pre-gap length 0:00:02.62

Peak level 88.3 %
Extraction speed 4.2 X
Track quality 100.0 %
Test CRC 929DECC7
Copy CRC 929DECC7
Accurately ripped (confidence 1) [F3E67AC6] (AR v2)
Copy OK

Track 12

Filename C:My DocumentsMy FLACVA - White Christmas (1993) [FLAC] {Charly}12 - Glenn Miller & His Orchestra - Jingle Bells.wav

Pre-gap length 0:00:02.63

Peak level 88.0 %
Extraction speed 3.8 X
Track quality 99.9 %
Test CRC F9B7BEF8
Copy CRC F9B7BEF8
Accurately ripped (confidence 1) [F42D1E21] (AR v2)
Copy OK

Track 13

Filename C:My DocumentsMy FLACVA - White Christmas (1993) [FLAC] {Charly}13 - The Rocky Mountaineers - Christmas In The Rockies (Medley).wav

Pre-gap length 0:00:02.63

Peak level 90.5 %
Extraction speed 5.3 X
Track quality 100.0 %
Test CRC 6DEF70AC
Copy CRC 6DEF70AC
Accurately ripped (confidence 1) [30E9CC36] (AR v2)
Copy OK

Track 14

Filename C:My DocumentsMy FLACVA - White Christmas (1993) [FLAC] {Charly}14 - The Fleet Street Choir - God Rest You Merry Gentlemen.wav

Pre-gap length 0:00:02.62

Peak level 67.4 %
Extraction speed 4.0 X
Track quality 99.9 %
Test CRC 4FEE0136
Copy CRC 4FEE0136
Accurately ripped (confidence 1) [4B002096] (AR v2)
Copy OK

Track 15

Filename C:My DocumentsMy FLACVA - White Christmas (1993) [FLAC] {Charly}15 - The Fleet Street Choir - While Shepherds Watched.wav

Pre-gap length 0:00:02.63

Peak level 67.3 %
Extraction speed 4.6 X
Track quality 100.0 %
Test CRC A3536D4E
Copy CRC A3536D4E
Accurately ripped (confidence 1) [A41B0EA5] (AR v2)
Copy OK

Track 16

Filename C:My DocumentsMy FLACVA - White Christmas (1993) [FLAC] {Charly}16 - St. Brannon's C.D.S. Choir - The Good King Wenchelas.wav

Pre-gap length 0:00:02.62

Peak level 65.6 %
Extraction speed 4.4 X
Track quality 100.0 %
Test CRC 12EF3198
Copy CRC 12EF3198
Accurately ripped (confidence 1) [E16D1D14] (AR v2)
Copy OK

Track 17

Filename C:My DocumentsMy FLACVA - White Christmas (1993) [FLAC] {Charly}17 - St. Brannon's C.D.S. Choir - The First Nöel.wav

Pre-gap length 0:00:02.62

Peak level 71.3 %
Extraction speed 4.1 X
Track quality 100.0 %
Test CRC 23CAFDF2
Copy CRC 23CAFDF2
Accurately ripped (confidence 1) [793A2163] (AR v2)
Copy OK

Track 18

Filename C:My DocumentsMy FLACVA - White Christmas (1993) [FLAC] {Charly}18 - Master James Phelan - O Come All Ye Faithfull.wav

Pre-gap length 0:00:02.62

Peak level 56.4 %
Extraction speed 0.5 X
Track quality 100.0 %
Test CRC CCFFE3AE
Copy CRC CCFFE3AE
Accurately ripped (confidence 1) [E9702E13] (AR v2)
Copy OK

Track 19

Filename C:My DocumentsMy FLACVA - White Christmas (1993) [FLAC] {Charly}19 - Archie Lewis & Geraldo Strings - White Christmas.wav

Pre-gap length 0:00:02.62

Peak level 65.7 %
Extraction speed 3.4 X
Track quality 100.0 %
Test CRC BBE09DE6
Copy CRC BBE09DE6
Accurately ripped (confidence 1) [4BB775E7] (AR v2)
Copy OK

Track 20

Filename C:My DocumentsMy FLACVA - White Christmas (1993) [FLAC] {Charly}20 - Bing Crosby - Let's Start The New Year Right.wav

Pre-gap length 0:00:02.62

Peak level 81.4 %
Extraction speed 4.9 X
Track quality 100.0 %
Test CRC 7CB2FCA2
Copy CRC 7CB2FCA2
Accurately ripped (confidence 1) [737B8C00] (AR v2)
Copy OK


All tracks accurately ripped

No errors occurred

End of status report

–– CUETools DB Plugin V2.1.6

[CTDB TOCID: xno.L6_gr7aZlb8sGdn0LV1uWdw-] disk not present in database
Submit result: xno.L6_gr7aZlb8sGdn0LV1uWdw- has been uploaded


==== Log checksum 40058F52632716C5EE8F5D997C26A1B8B126E654E77F044781266006FEA3D37E ====


http://www.nitroflare.com/view/6E337EDFC5F3303/WHlT3CHRl5TM45_lggEFL4C.rar
http://www.nitroflare.com/view/D8CA1DD4910DDB6/WHlT3CHRl5TM45_lggEMPE.rar