VA - Carols For Keyboards: A Holiday Songbook (1997)


VA - Carols For Keyboards: A Holiday Songbook (1997)
EAC Rip | FLAC with CUE and log | scans | 283 mb
MP3 CBR 320kbps | RAR | 144 mb
Genre: Christmas, classical. new age, instrumental

Carols For Keyboards: A Holiday Songbook is a 1997 compilation of Christmas music focused on keyboard instruments. Some of the people featured include Herb Avery, Robert Strickland and Hywell Dunn-Davies, the latter known under the pseudonym Convergence.


01. Convergence & The Cathedral Brass - Fanfare From "Fairy Queen" Symphony/I Saw Three Ships
02. Convergence - God Rest Ye Merry, Gentleman
03. Herb Avery - Good King Wenceslas
04. Convergence - Carol Of The Bells
05. Herb Avery - Silent Night
06. Convergence & Dallas Symphony Orchestra - Troika (Russian Sleigh) From "Lt. Kije" Suite
07. Convergence & Royal Promenade Orchestra - Greensleeves
08. Robert Strickland - Go Tell It On The Mountain
09. Convergence - Coventry Carol
10. Convergence - O Come, O Come, Emmanuel
11. Herb Avery - Born On Earth The Divine Child
12. Herb Avery - Jesu, Joy Of Man's Desiring
13. Convergence - O Come All Ye Faithful
14. Convergence - Hark! The Herald Angels Sing
15. Herb Avery - Prelude In C
16. Herb Avery - We Wish You A Merry Christmas

Project management: Rob Enslin
Mastered by Gary Rice

Exact Audio Copy V1.1 from 23. June 2015

EAC extraction logfile from 1. December 2016, 9:26

Various Artists - Carols For Keyboards, A Holiday Songbook

Used drive : TEAC DVD-ROM DV-28SW Adapter: 1 ID: 0

Read mode : Secure
Utilize accurate stream : Yes
Defeat audio cache : Yes
Make use of C2 pointers : No

Read offset correction : 6
Overread into Lead-In and Lead-Out : No
Fill up missing offset samples with silence : Yes
Delete leading and trailing silent blocks : No
Null samples used in CRC calculations : Yes
Used interface : Native Win32 interface for Win NT & 2000
Gap handling : Appended to previous track

Used output format : Internal WAV Routines
Sample format : 44.100 Hz; 16 Bit; Stereo


TOC of the extracted CD

Track | Start | Length | Start sector | End sector
––––––––––––––––––––––––––––-
1 | 0:00.00 | 2:42.61 | 0 | 12210
2 | 2:42.61 | 6:23.71 | 12211 | 41006
3 | 9:06.57 | 3:58.13 | 41007 | 58869
4 | 13:04.70 | 3:07.67 | 58870 | 72961
5 | 16:12.62 | 3:41.09 | 72962 | 89545
6 | 19:53.71 | 2:36.17 | 89546 | 101262
7 | 22:30.13 | 5:38.34 | 101263 | 126646
8 | 28:08.47 | 2:34.47 | 126647 | 138243
9 | 30:43.19 | 4:23.68 | 138244 | 158036
10 | 35:07.12 | 4:46.07 | 158037 | 179493
11 | 39:53.19 | 1:30.40 | 179494 | 186283
12 | 41:23.59 | 2:26.68 | 186284 | 197301
13 | 43:50.52 | 4:10.30 | 197302 | 216081
14 | 48:01.07 | 2:58.41 | 216082 | 229472
15 | 50:59.48 | 8:19.73 | 229473 | 266970
16 | 59:19.46 | 4:39.44 | 266971 | 287939


Track 1

Filename C:My DocumentsMy FLACVA - Carols For Keyboards, A Holiday Songbook (1997) [FLAC]1 - Convergence & The Cathedral Brass - Fanfare From ''Fairy Queen'' Symphony,I Saw Three Ships.wav

Pre-gap length 0:00:02.00

Peak level 92.9 %
Extraction speed 2.6 X
Track quality 100.0 %
Test CRC 3DC55DA7
Copy CRC 3DC55DA7
Track not present in AccurateRip database
Copy OK

Track 2

Filename C:My DocumentsMy FLACVA - Carols For Keyboards, A Holiday Songbook (1997) [FLAC]2 - Convergence - God Rest Ye Merry, Gentleman.wav

Pre-gap length 0:00:01.45

Peak level 92.5 %
Extraction speed 2.6 X
Track quality 100.0 %
Test CRC 4DF1AA16
Copy CRC 4DF1AA16
Track not present in AccurateRip database
Copy OK

Track 3

Filename C:My DocumentsMy FLACVA - Carols For Keyboards, A Holiday Songbook (1997) [FLAC]3 - Herb Avery - Good King Wenceslas.wav

Pre-gap length 0:00:01.44

Peak level 77.6 %
Extraction speed 3.2 X
Track quality 100.0 %
Test CRC D95B075B
Copy CRC D95B075B
Track not present in AccurateRip database
Copy OK

Track 4

Filename C:My DocumentsMy FLACVA - Carols For Keyboards, A Holiday Songbook (1997) [FLAC]4 - Convergence - Carol Of The Bells.wav

Pre-gap length 0:00:01.45

Peak level 100.0 %
Extraction speed 2.4 X
Track quality 99.9 %
Test CRC BA7569C1
Copy CRC BA7569C1
Track not present in AccurateRip database
Copy OK

Track 5

Filename C:My DocumentsMy FLACVA - Carols For Keyboards, A Holiday Songbook (1997) [FLAC]5 - Herb Avery - Silent Night.wav

Pre-gap length 0:00:01.45

Peak level 44.1 %
Extraction speed 3.0 X
Track quality 99.9 %
Test CRC 3BA8B725
Copy CRC 3BA8B725
Track not present in AccurateRip database
Copy OK

Track 6

Filename C:My DocumentsMy FLACVA - Carols For Keyboards, A Holiday Songbook (1997) [FLAC]6 - Convergence & Dallas Symphony Orchestra - Troika (Russian Sleigh) From ''Lt. Kije'' Suite.wav

Pre-gap length 0:00:01.45

Peak level 95.6 %
Extraction speed 3.5 X
Track quality 100.0 %
Test CRC 3B1F4F4A
Copy CRC 3B1F4F4A
Track not present in AccurateRip database
Copy OK

Track 7

Filename C:My DocumentsMy FLACVA - Carols For Keyboards, A Holiday Songbook (1997) [FLAC]7 - Convergence & Royal Promenade Orchestra - Greensleeves.wav

Pre-gap length 0:00:01.45

Peak level 95.2 %
Extraction speed 4.0 X
Track quality 100.0 %
Test CRC FCD07B54
Copy CRC FCD07B54
Track not present in AccurateRip database
Copy OK

Track 8

Filename C:My DocumentsMy FLACVA - Carols For Keyboards, A Holiday Songbook (1997) [FLAC]8 - Robert Strickland - Go Tell It On The Mountain.wav

Pre-gap length 0:00:01.45

Peak level 56.6 %
Extraction speed 3.9 X
Track quality 100.0 %
Test CRC E3C899AB
Copy CRC E3C899AB
Track not present in AccurateRip database
Copy OK

Track 9

Filename C:My DocumentsMy FLACVA - Carols For Keyboards, A Holiday Songbook (1997) [FLAC]9 - Convergence - Coventry Carol.wav

Pre-gap length 0:00:01.45

Peak level 50.9 %
Extraction speed 3.7 X
Track quality 99.9 %
Test CRC 3F156B73
Copy CRC 3F156B73
Track not present in AccurateRip database
Copy OK

Track 10

Filename C:My DocumentsMy FLACVA - Carols For Keyboards, A Holiday Songbook (1997) [FLAC]10 - Convergence - O Come, O Come, Emmanuel.wav

Pre-gap length 0:00:01.45

Peak level 74.1 %
Extraction speed 4.6 X
Track quality 100.0 %
Test CRC F09205B9
Copy CRC F09205B9
Track not present in AccurateRip database
Copy OK

Track 11

Filename C:My DocumentsMy FLACVA - Carols For Keyboards, A Holiday Songbook (1997) [FLAC]11 - Herb Avery - Born On Earth The Divine Child.wav

Pre-gap length 0:00:01.45

Peak level 38.5 %
Extraction speed 3.9 X
Track quality 100.0 %
Test CRC CE5CAA1B
Copy CRC CE5CAA1B
Track not present in AccurateRip database
Copy OK

Track 12

Filename C:My DocumentsMy FLACVA - Carols For Keyboards, A Holiday Songbook (1997) [FLAC]12 - Herb Avery - Jesu, Joy Of Man's Desiring.wav

Pre-gap length 0:00:01.45

Peak level 65.2 %
Extraction speed 4.5 X
Track quality 100.0 %
Test CRC 592FA77F
Copy CRC 592FA77F
Track not present in AccurateRip database
Copy OK

Track 13

Filename C:My DocumentsMy FLACVA - Carols For Keyboards, A Holiday Songbook (1997) [FLAC]13 - Convergence - O Come All Ye Faithful.wav

Pre-gap length 0:00:01.45

Peak level 84.8 %
Extraction speed 4.9 X
Track quality 100.0 %
Test CRC F31CAB50
Copy CRC F31CAB50
Track not present in AccurateRip database
Copy OK

Track 14

Filename C:My DocumentsMy FLACVA - Carols For Keyboards, A Holiday Songbook (1997) [FLAC]14 - Convergence - Hark! The Herald Angels Sing.wav

Pre-gap length 0:00:01.45

Peak level 71.0 %
Extraction speed 5.0 X
Track quality 100.0 %
Test CRC 18377ABC
Copy CRC 18377ABC
Track not present in AccurateRip database
Copy OK

Track 15

Filename C:My DocumentsMy FLACVA - Carols For Keyboards, A Holiday Songbook (1997) [FLAC]15 - Herb Avery - Prelude In C.wav

Pre-gap length 0:00:01.45

Peak level 75.9 %
Extraction speed 1.2 X
Track quality 99.9 %
Test CRC 7DCBB677
Copy CRC 7DCBB677
Track not present in AccurateRip database
Copy OK

Track 16

Filename C:My DocumentsMy FLACVA - Carols For Keyboards, A Holiday Songbook (1997) [FLAC]16 - Herb Avery - We Wish You A Merry Christmas.wav

Pre-gap length 0:00:01.44

Peak level 86.2 %
Extraction speed 5.3 X
Track quality 100.0 %
Test CRC AD727D82
Copy CRC AD727D82
Track not present in AccurateRip database
Copy OK


None of the tracks are present in the AccurateRip database

No errors occurred

End of status report

–– CUETools DB Plugin V2.1.6

[CTDB TOCID: Tweb0wifCgeEwUSx4OB5mQ_9dow-] disk not present in database
Submit result: Tweb0wifCgeEwUSx4OB5mQ_9dow- has been uploaded


==== Log checksum 8AC7ACB4AB3CE93C53E23CA86620270397E275EBE31CFC6457DA308F50D7D81B ====


http://www.nitroflare.com/view/798D1A303043B41/C4R0L5F0RK3Y804RD5-4H5_lgg7FL4C.rar
http://www.nitroflare.com/view/88ADE958CE51F4C/C4R0L5F0RK3Y804RD5-4H5_lgg7MPE.rar