VA - A Very Special Christmas (1987) [Re-Up]


VA - A Very Special Christmas (1987)
EAC | FLAC | Tracks (Cue&Log) ~ 350 Mb (incl 5%) | Mp3 (CBR320) ~ 132 Mb (incl 5%) | Scans included
Genre: Christmas, Holidays, Rock, Pop, Rock & Roll | Label: A&M | # CDA 3911 | Time: 00:50:55

Recorded to benefit the Special Olympics, this has some of the biggest names in contemporary music, most covering seasonal favorites with mixed success. Outstanding tracks include The Pretenders "Have Yourself a Merry Little Christmas," with Chrissie Hynde giving a touching performance. Run-D.M.C.'s topical "Christmas in Hollis" relies heavily on sampling "Back Door Santa," and may head you toward the dance floor. Alison Moyet's stately version of "The Coventry Carol" is beautifully haunting. Only the Material Girl, Madonna, embarrasses herself with an overly campy "Santa Baby."

Review by Dennis MacDonald, Allmusic.com

Tracklist:

01. The Pointer Sisters - Santa Claus Is Coming To Town (3:26)
02. Eurythmics - Winter Wonderland (3:36)
03. Whitney Houston - Do You Hear What I Hear (3:33)
04. Bruce Springsteen and The E Street Band - Merry Christmas Baby (4:53)
05. The Pretenders - Have Yourself A Merry Little Christmas (4:42)
06. John Cougar Mellencamp - I Saw Mommy Kissing Santa Claus (2:39)
07. Sting - Gabriel's Message (2:14)
08. Run D.M.C. - Christmas In Hollis (3:00)
09. U2 - Christmas (Baby Please Come Home) (2:21)
10. Madonna - Santa Baby (2:35)
11. Bob Seger & The Silver Bullet Band - The Little Drummer Boy (3:32)
12. Bryan Adams - Run Rudolph Run (2:43)
13. Bon Jovi - Back Door Santa (3:54)
14. Alison Moyet - The Coventry Carol (3:25)
15. Stevie Nicks - Silent Night (4:37)


Exact Audio Copy V0.99 prebeta 5 from 4. May 2009

EAC extraction logfile from 8. December 2011, 20:24

Various / A Very Special Christmas

Used drive : Optiarc DVD RW AD-7580S Adapter: 0 ID: 1

Read mode : Secure
Utilize accurate stream : Yes
Defeat audio cache : Yes
Make use of C2 pointers : No

Read offset correction : 6
Overread into Lead-In and Lead-Out : No
Fill up missing offset samples with silence : Yes
Delete leading and trailing silent blocks : No
Null samples used in CRC calculations : Yes
Used interface : Native Win32 interface for Win NT & 2000
Gap handling : Appended to previous track

Used output format : User Defined Encoder
Selected bitrate : 768 kBit/s
Quality : High
Add ID3 tag : No
Command line compressor : C:Program Files NewExact Audio CopyFLACFLAC.EXE
Additional command line options : -8 -V %s


TOC of the extracted CD

Track | Start | Length | Start sector | End sector
––––––––––––––––––––––––––––-
1 | 0:00.25 | 3:23.30 | 25 | 15279
2 | 3:23.55 | 3:35.60 | 15280 | 31464
3 | 6:59.40 | 3:32.55 | 31465 | 47419
4 | 10:32.20 | 4:53.37 | 47420 | 69431
5 | 15:25.57 | 4:28.63 | 69432 | 89594
6 | 19:54.45 | 2:39.30 | 89595 | 101549
7 | 22:34.00 | 2:13.65 | 101550 | 111589
8 | 24:47.65 | 2:59.55 | 111590 | 125069
9 | 27:47.45 | 2:20.62 | 125070 | 135631
10 | 30:08.32 | 2:34.73 | 135632 | 147254
11 | 32:43.30 | 3:32.15 | 147255 | 163169
12 | 36:15.45 | 2:43.32 | 163170 | 175426
13 | 38:59.02 | 3:53.45 | 175427 | 192946
14 | 42:52.47 | 3:24.68 | 192947 | 208314
15 | 46:17.40 | 4:37.60 | 208315 | 229149


Track 1

Filename D:TorrentsVA - 1987 - A Very Special Christmas1. Pointer Sisters, The - Santa Claus Is Coming To Town.wav

Pre-gap length 0:00:02.25

Peak level 100.0 %
Track quality 100.0 %
Copy CRC C6E368FF
Accurately ripped (confidence 10) [8BC34DB7]
Copy OK

Track 2

Filename D:TorrentsVA - 1987 - A Very Special Christmas2. Eurythmics - Winter Wonderland.wav

Pre-gap length 0:00:01.00

Peak level 99.1 %
Track quality 100.0 %
Copy CRC 38331F3A
Accurately ripped (confidence 10) [A1D8F481]
Copy OK

Track 3

Filename D:TorrentsVA - 1987 - A Very Special Christmas3. Whitney Houston - Do You Hear What I Hear .wav

Pre-gap length 0:00:01.00

Peak level 91.3 %
Track quality 100.0 %
Copy CRC CA81FBD3
Accurately ripped (confidence 10) [E57135A7]
Copy OK

Track 4

Filename D:TorrentsVA - 1987 - A Very Special Christmas4. Bruce Springsteen & The E Street Band - Merry Christmas Baby.wav

Peak level 100.0 %
Track quality 100.0 %
Copy CRC B810472B
Accurately ripped (confidence 9) [4F97DC5E]
Copy OK

Track 5

Filename D:TorrentsVA - 1987 - A Very Special Christmas5. Pretenders, The - Have Yourself A Merry Little Christmas.wav

Pre-gap length 0:00:01.00

Peak level 66.5 %
Track quality 100.0 %
Copy CRC EAE941AA
Accurately ripped (confidence 9) [F2CFAA94]
Copy OK

Track 6

Filename D:TorrentsVA - 1987 - A Very Special Christmas6. John Cougar Mellencamp - I Saw Mommy Kissing Santa Claus.wav

Pre-gap length 0:00:01.00

Peak level 90.4 %
Track quality 99.9 %
Copy CRC 92E58B2D
Accurately ripped (confidence 10) [E422F3F8]
Copy OK

Track 7

Filename D:TorrentsVA - 1987 - A Very Special Christmas7. Sting - Gabriel's Message.wav

Peak level 67.8 %
Track quality 100.0 %
Copy CRC 08EA17E3
Accurately ripped (confidence 10) [8528247A]
Copy OK

Track 8

Filename D:TorrentsVA - 1987 - A Very Special Christmas8. Run DMC - Christmas In Hollis.wav

Pre-gap length 0:00:02.00

Peak level 99.2 %
Track quality 100.0 %
Copy CRC 3CC8CAA4
Accurately ripped (confidence 10) [BFC8B9C5]
Copy OK

Track 9

Filename D:TorrentsVA - 1987 - A Very Special Christmas9. U2 - Christmas (Baby Please Come Home).wav

Peak level 100.0 %
Track quality 100.0 %
Copy CRC 427F6CA5
Accurately ripped (confidence 10) [1C19A811]
Copy OK

Track 10

Filename D:TorrentsVA - 1987 - A Very Special Christmas10. Madonna - Santa Baby.wav

Pre-gap length 0:00:01.00

Peak level 82.0 %
Track quality 100.0 %
Copy CRC F6972FE7
Accurately ripped (confidence 10) [2BB61C7C]
Copy OK

Track 11

Filename D:TorrentsVA - 1987 - A Very Special Christmas11. Bob Seger And The Silver Bullet Band - The Little Drummer Boy.wav

Peak level 84.6 %
Track quality 99.9 %
Copy CRC FD8E7EC5
Accurately ripped (confidence 9) [9B24B3B7]
Copy OK

Track 12

Filename D:TorrentsVA - 1987 - A Very Special Christmas12. Bryan Adams - Run Rudolph Run.wav

Pre-gap length 0:00:02.00

Peak level 100.0 %
Track quality 100.0 %
Copy CRC DD8436FE
Accurately ripped (confidence 10) [6032C9AA]
Copy OK

Track 13

Filename D:TorrentsVA - 1987 - A Very Special Christmas13. Bon Jovi - Back Door Santa.wav

Peak level 92.0 %
Track quality 100.0 %
Copy CRC DDD2AADB
Accurately ripped (confidence 8) [D529E8AB]
Copy OK

Track 14

Filename D:TorrentsVA - 1987 - A Very Special Christmas14. Allison Moyet - The Coventry Carol.wav

Peak level 68.8 %
Track quality 100.0 %
Copy CRC 0B5ADA31
Accurately ripped (confidence 10) [AE61DB41]
Copy OK

Track 15

Filename D:TorrentsVA - 1987 - A Very Special Christmas15. Stevie Nicks - Silent Night.wav

Peak level 74.5 %
Track quality 100.0 %
Copy CRC 8A691344
Accurately ripped (confidence 9) [0A038836]
Copy OK


All tracks accurately ripped

No errors occurred

End of status report

[CUETools log; Date: 23.12.2014 3:21:19; Version: 2.1.4]
Pregap length 00:00:25.
[CTDB TOCID: d._0EPbhgr.KK8vulsL9yFX4GX8-] found.
Track | CTDB Status
1 | (1/1) Accurately ripped
2 | (1/1) Accurately ripped
3 | (1/1) Accurately ripped
4 | (1/1) Accurately ripped
5 | (1/1) Accurately ripped
6 | (1/1) Accurately ripped
7 | (1/1) Accurately ripped
8 | (1/1) Accurately ripped
9 | (1/1) Accurately ripped
10 | (1/1) Accurately ripped
11 | (1/1) Accurately ripped
12 | (1/1) Accurately ripped
13 | (1/1) Accurately ripped
14 | (1/1) Accurately ripped
15 | (1/1) Accurately ripped
[AccurateRip ID: 001c207b-013ae029-e00bef0f] found.
Track [ CRC | V2 ] Status
01 [8bc34db7|46aab014] (14+00/22) Accurately ripped
02 [a1d8f481|50684345] (14+00/22) Accurately ripped
03 [e57135a7|3c48af0d] (14+00/22) Accurately ripped
04 [4f97dc5e|331d4c08] (13+00/21) Accurately ripped
05 [f2cfaa94|a15ff38c] (13+00/21) Accurately ripped
06 [e422f3f8|8cf907d4] (14+00/22) Accurately ripped
07 [8528247a|2e4b0c15] (14+00/22) Accurately ripped
08 [bfc8b9c5|512c325a] (14+00/22) Accurately ripped
09 [1c19a811|dfb6b14d] (14+00/23) Accurately ripped
10 [2bb61c7c|ee88121d] (14+00/22) Accurately ripped
11 [9b24b3b7|0ccf69bc] (13+00/21) Accurately ripped
12 [6032c9aa|9e0887ca] (14+00/22) Accurately ripped
13 [d529e8ab|3d0a5e07] (11+00/22) Accurately ripped
14 [ae61db41|bfaac6a1] (14+00/22) Accurately ripped
15 [0a038836|04ac40fc] (13+00/21) Accurately ripped
Offsetted by -624:
01 [0ce522e7] (02/22) Accurately ripped
02 [fc3bef01] (02/22) Accurately ripped
03 [eb092527] (02/22) Accurately ripped
04 [4d5aabce] (02/21) Accurately ripped
05 [ecd37ba4] (02/21) Accurately ripped
06 [b0b424d8] (02/22) Accurately ripped
07 [526e5c3a] (02/22) Accurately ripped
08 [32ff94e5] (02/22) Accurately ripped
09 [91acdc21] (02/23) Accurately ripped
10 [a6f4f42c] (02/22) Accurately ripped
11 [f9f83817] (02/21) Accurately ripped
12 [35a5cf0a] (02/22) Accurately ripped
13 [429319bb] (02/22) Accurately ripped
14 [aacf4bb7] (02/22) Accurately ripped
15 [e49a2280] (02/21) Accurately ripped

Track Peak [ CRC32 ] [W/O NULL] [ LOG ]
– 100,0 [7FB8B937] [563D3F2C]
01 100,0 [C6E368FF] [675C3B24] CRC32
02 99,1 [38331F3A] [6A25960F] CRC32
03 91,3 [CA81FBD3] [84318082] CRC32
04 100,0 [B810472B] [F0A9B290] CRC32
05 66,5 [EAE941AA] [E25174FD] CRC32
06 90,4 [92E58B2D] [1A87ED7C] CRC32
07 67,8 [08EA17E3] [70BF3005] CRC32
08 99,2 [3CC8CAA4] [6FE0EECC] CRC32
09 100,0 [427F6CA5] [75402547] CRC32
10 82,0 [F6972FE7] [22D8FD26] CRC32
11 84,6 [FD8E7EC5] [7D318EDE] CRC32
12 100,0 [DD8436FE] [F89E1A90] CRC32
13 92,0 [DDD2AADB] [067D5F0A] CRC32
14 68,8 [0B5ADA31] [D6BF8F46] CRC32
15 74,5 [8A691344] [575AF0EB] CRC32

foobar2000 1.2 / Dynamic Range Meter 1.1.1
log date: 2014-12-23 16:32:25

––––––––––––––––––––––––––––––––––––––––
Analyzed: Alison Moyet / A Very Special Christmas (1)
Bob Seger & The Silver Bullet Band / A Very Special Christmas (2)
Bon Jovi / A Very Special Christmas (3)
Bruce Springsteen / A Very Special Christmas (4)
Bryan Adams / A Very Special Christmas (5)
John Cougar Mellencamp / A Very Special Christmas (6)
Madonna / A Very Special Christmas (7)
Run DMC / A Very Special Christmas (8)
Stevie Nicks / A Very Special Christmas (9)
Sting / A Very Special Christmas (10)
The Eurythmics / A Very Special Christmas (11)
The Pointer Sisters / A Very Special Christmas (12)
The Pretenders / A Very Special Christmas (13)
U2 / A Very Special Christmas (14)
Whitney Houston / A Very Special Christmas (15)
––––––––––––––––––––––––––––––––––––––––

DR Peak RMS Duration Track
––––––––––––––––––––––––––––––––––––––––
DR15 -3.24 dB -21.24 dB 3:25 14-The Coventry Carol
DR11 -1.45 dB -15.63 dB 3:32 11-The Little Drummer Boy
DR12 -0.72 dB -13.86 dB 3:54 13-Back Door Santa
DR12 0.00 dB -14.98 dB 4:53 04-Merry Christmas Baby
DR13 0.00 dB -13.91 dB 2:43 12-Run Rudolph Run
DR12 -0.87 dB -15.32 dB 2:39 06-I Saw Mommy Kissing Santa Claus
DR13 -1.71 dB -16.86 dB 2:35 10-Santa Baby
DR15 -0.06 dB -16.35 dB 3:00 08-Christmas In Hollis
DR11 -2.55 dB -17.95 dB 4:38 15-Silent Night
DR11 -3.36 dB -16.04 dB 2:14 07-Gabriel's Message
DR13 -0.07 dB -16.16 dB 3:36 02-Winter Wonderland
DR13 0.00 dB -15.41 dB 3:23 01-Santa Claus Is Coming To Town
DR11 -3.53 dB -17.85 dB 4:29 05-Have Yourself A Merry Little Christmas
DR12 0.00 dB -14.11 dB 2:21 09-Christmas (Baby Please Come Home)
DR12 -0.79 dB -14.99 dB 3:33 03-Do You Hear What I Hear?
––––––––––––––––––––––––––––––––––––––––

Number of tracks: 15
Official DR value: DR12

Samplerate: 44100 Hz
Channels: 2
Bits per sample: 16
Bitrate: 934 kbps
Codec: FLAC
================================================================================



All thanks to original releaser - cooman1