Âõîä â ñâîé àêêàóíò

Èëè âîéäèòå ÷åðåç ñîö. ñåòè

Tony Bennett - The Classic Christmas Album (2011) [Re-Up]


Tony Bennett - The Classic Christmas Album (2011)
XLD | FLAC | Image (Cue&Log) ~ 362 Mb (incl 5%) | Mp3 (CBR320) ~ 163 Mb (incl 5%) | Scans included
Traditional Pop, Vocal Jazz, Christmas, Holidays | Label: Columbia/Legasy | # 88697980842 | 00:52:40

This collection features a sampling of four Tony Bennett Christmas albums – Snowfall: The Tony Bennett Christmas Album, Our Favorite Things, Christmas with Tony Bennett, and A Swingin’ Christmas – released between 1968 and 2008. Highlights include such traditional holiday standards as "Silver Bells," "Silent Night," and "Winter Wonderland," plus “Christmas in Herald Square” taken from the album The Playground. This is a nice addition to any Christmas collection.

Review by Al Campbell, Allmusic.com





Tracklist:

01. Santa Claus Is Coming To Town (02:54)
02. My Favorite Things [Album Version] (03:20)
03. Christmas Time Is Here (04:00)
04. Deck The Halls (02:10)
05. The First Noel (02:21) Duet with Placido Domingo
06. The Christmas Song (Chestnuts Roasting On An Open Fire) (02:39)
07. Silver Bells (03:17)
08. Have Yourself A Merry Little Christmas (02:30)
09. O Little Town Of Bethlehem (03:17)
10. I Love The Winter Weather (02:14)
11. I've Got My Love To Keep Me Warm (03:31) Duet with Antonia Bennett
12. Christmas In Herald Square [Album Version] (03:27)
13. I'll Be Home For Christmas (02:13)
14. O Come All Ye Faithful (03:12)
15. What Child Is This [Previously Unreleased] (04:19)
16. Winter Wonderland [Album Version] (02:16)
17. Silent Night (02:44)
18. White Christmas [Album Version] (02:05)


X Lossless Decoder version 20131102 (145.0)

XLD extraction logfile from 2014-03-07 23:46:29 +0200

Tony Bennett / The Classic Christmas Album

Used drive : MATSHITA DVD-R UJ-898 (revision HC09)
Media type : Pressed CD

Ripper mode : XLD Secure Ripper
Disable audio cache : OK for the drive with a cache less than 1375KiB
Make use of C2 pointers : NO
Read offset correction : 102
Max retry count : 20
Gap status : Analyzed, Appended

TOC of the extracted CD
Track | Start | Length | Start sector | End sector
––––––––––––––––––––––––––––-
1 | 00:00:00 | 02:54:46 | 0 | 13095
2 | 02:54:46 | 03:20:16 | 13096 | 28111
3 | 06:14:62 | 04:00:70 | 28112 | 46181
4 | 10:15:57 | 02:10:66 | 46182 | 55997
5 | 12:26:48 | 02:21:03 | 55998 | 66575
6 | 14:47:51 | 02:39:33 | 66576 | 78533
7 | 17:27:09 | 03:17:70 | 78534 | 93378
8 | 20:45:04 | 02:30:70 | 93379 | 104698
9 | 23:15:74 | 03:17:35 | 104699 | 119508
10 | 26:33:34 | 02:14:38 | 119509 | 129596
11 | 28:47:72 | 03:31:70 | 129597 | 145491
12 | 32:19:67 | 03:27:65 | 145492 | 161081
13 | 35:47:57 | 02:13:40 | 161082 | 171096
14 | 38:01:22 | 03:12:19 | 171097 | 185515
15 | 41:13:41 | 04:19:23 | 185516 | 204963
16 | 45:32:64 | 02:16:39 | 204964 | 215202
17 | 47:49:28 | 02:44:56 | 215203 | 227558
18 | 50:34:09 | 02:05:53 | 227559 | 236986
19 | 55:11:62 | 02:47:30 | 248387 | 260941

AccurateRip Summary (DiscID: 002335d1-01d6a5a4-2a0d9713)
Track 01 : OK (v2, confidence 4/4)
Track 02 : OK (v2, confidence 4/4)
Track 03 : OK (v2, confidence 4/4)
Track 04 : OK (v2, confidence 4/4)
Track 05 : OK (v2, confidence 4/4)
Track 06 : OK (v2, confidence 4/4)
Track 07 : OK (v2, confidence 4/4)
Track 08 : OK (v2, confidence 4/4)
Track 09 : OK (v2, confidence 4/4)
Track 10 : OK (v2, confidence 4/4)
Track 11 : OK (v2, confidence 4/4)
Track 12 : OK (v2, confidence 5/5)
Track 13 : OK (v2, confidence 5/5)
Track 14 : OK (v2, confidence 5/5)
Track 15 : OK (v2, confidence 5/5)
Track 16 : OK (v2, confidence 5/5)
Track 17 : OK (v2, confidence 5/5)
Track 18 : OK (v2, confidence 5/5)
->All tracks accurately ripped.

All Tracks
Filename : /Users/Home/Music/my rips/tony bennett-the classic christmas album-2011/Tony Bennett-The Classic Christmas Album-2008.flac
Album gain : -6.69 dB
Peak : 1.000000
CRC32 hash (test run) : C4D042CA
CRC32 hash : C4D042CA
CRC32 hash (skip zero) : 19408503
Statistics
Read error : 0
Jitter error (maybe fixed) : 0
Retry sector count : 0
Damaged sector count : 0

Track 01
Pre-gap length : 00:02:00

Track gain : -7.82 dB
Peak : 0.888641
CRC32 hash (test run) : 5E86525D
CRC32 hash : 5E86525D
CRC32 hash (skip zero) : 09CF104C
AccurateRip v1 signature : 5ED19D87
AccurateRip v2 signature : 128D7566
->Accurately ripped (v2, confidence 4/4)
Statistics
Read error : 0
Jitter error (maybe fixed) : 0
Retry sector count : 0
Damaged sector count : 0

Track 02
Pre-gap length : 00:02:56

Track gain : -6.19 dB
Peak : 0.988678
CRC32 hash (test run) : E9089359
CRC32 hash : E9089359
CRC32 hash (skip zero) : 74156F83
AccurateRip v1 signature : B00D9D82
AccurateRip v2 signature : 632064DB
->Accurately ripped (v2, confidence 4/4)
Statistics
Read error : 0
Jitter error (maybe fixed) : 0
Retry sector count : 0
Damaged sector count : 0

Track 03
Pre-gap length : 00:02:57

Track gain : -4.93 dB
Peak : 0.999847
CRC32 hash (test run) : 677A52C4
CRC32 hash : 677A52C4
CRC32 hash (skip zero) : F029604B
AccurateRip v1 signature : 310A5B5F
AccurateRip v2 signature : C4564EA2
->Accurately ripped (v2, confidence 4/4)
Statistics
Read error : 0
Jitter error (maybe fixed) : 0
Retry sector count : 0
Damaged sector count : 0

Track 04
Pre-gap length : 00:02:57

Track gain : -6.50 dB
Peak : 1.000000
CRC32 hash (test run) : BC61D8AF
CRC32 hash : BC61D8AF
CRC32 hash (skip zero) : 48945082
AccurateRip v1 signature : 83A7B801
AccurateRip v2 signature : 334EA217
->Accurately ripped (v2, confidence 4/4)
Statistics
Read error : 0
Jitter error (maybe fixed) : 0
Retry sector count : 0
Damaged sector count : 0

Track 05
Pre-gap length : 00:02:57

Track gain : -7.05 dB
Peak : 1.000000
CRC32 hash (test run) : 7603255E
CRC32 hash : 7603255E
CRC32 hash (skip zero) : 29ACA81D
AccurateRip v1 signature : 1C8098FD
AccurateRip v2 signature : 022F8BD2
->Accurately ripped (v2, confidence 4/4)
Statistics
Read error : 0
Jitter error (maybe fixed) : 0
Retry sector count : 0
Damaged sector count : 0

Track 06
Pre-gap length : 00:02:56

Track gain : -6.43 dB
Peak : 1.000000
CRC32 hash (test run) : F58B8F3D
CRC32 hash : F58B8F3D
CRC32 hash (skip zero) : 1CA27C9E
AccurateRip v1 signature : 390A2E36
AccurateRip v2 signature : FBDA3C47
->Accurately ripped (v2, confidence 4/4)
Statistics
Read error : 0
Jitter error (maybe fixed) : 0
Retry sector count : 0
Damaged sector count : 0

Track 07
Pre-gap length : 00:02:56

Track gain : -5.22 dB
Peak : 1.000000
CRC32 hash (test run) : A691A9C8
CRC32 hash : A691A9C8
CRC32 hash (skip zero) : 00D88420
AccurateRip v1 signature : 9A236F02
AccurateRip v2 signature : 92B4CD7F
->Accurately ripped (v2, confidence 4/4)
Statistics
Read error : 0
Jitter error (maybe fixed) : 0
Retry sector count : 0
Damaged sector count : 0

Track 08
Pre-gap length : 00:02:57

Track gain : -6.67 dB
Peak : 1.000000
CRC32 hash (test run) : EB016E27
CRC32 hash : EB016E27
CRC32 hash (skip zero) : C2F290D3
AccurateRip v1 signature : AD79E9F0
AccurateRip v2 signature : FA42C6AB
->Accurately ripped (v2, confidence 4/4)
Statistics
Read error : 0
Jitter error (maybe fixed) : 0
Retry sector count : 0
Damaged sector count : 0

Track 09
Pre-gap length : 00:02:56

Track gain : -7.22 dB
Peak : 1.000000
CRC32 hash (test run) : 76AE54BC
CRC32 hash : 76AE54BC
CRC32 hash (skip zero) : F0836E18
AccurateRip v1 signature : 417D1352
AccurateRip v2 signature : 554BC6EF
->Accurately ripped (v2, confidence 4/4)
Statistics
Read error : 0
Jitter error (maybe fixed) : 0
Retry sector count : 0
Damaged sector count : 0

Track 10
Pre-gap length : 00:02:56

Track gain : -5.67 dB
Peak : 0.984100
CRC32 hash (test run) : 1544A2A7
CRC32 hash : 1544A2A7
CRC32 hash (skip zero) : 8550E061
AccurateRip v1 signature : BD0C3660
AccurateRip v2 signature : F04770F3
->Accurately ripped (v2, confidence 4/4)
Statistics
Read error : 0
Jitter error (maybe fixed) : 0
Retry sector count : 0
Damaged sector count : 0

Track 11
Pre-gap length : 00:02:56

Track gain : -6.80 dB
Peak : 0.808716
CRC32 hash (test run) : 6BBCC8F0
CRC32 hash : 6BBCC8F0
CRC32 hash (skip zero) : F9DC360F
AccurateRip v1 signature : 8E605C02
AccurateRip v2 signature : 0F326AF3
->Accurately ripped (v2, confidence 4/4)
Statistics
Read error : 0
Jitter error (maybe fixed) : 0
Retry sector count : 0
Damaged sector count : 0

Track 12
Pre-gap length : 00:02:56

Track gain : -6.52 dB
Peak : 1.000000
CRC32 hash (test run) : 55D7E604
CRC32 hash : 55D7E604
CRC32 hash (skip zero) : CFAC7C01
AccurateRip v1 signature : A63496F9
AccurateRip v2 signature : 5C9B685F
->Accurately ripped (v2, confidence 5/5)
Statistics
Read error : 0
Jitter error (maybe fixed) : 0
Retry sector count : 0
Damaged sector count : 0

Track 13
Pre-gap length : 00:02:56

Track gain : -8.02 dB
Peak : 1.000000
CRC32 hash (test run) : 8A7F27F1
CRC32 hash : 8A7F27F1
CRC32 hash (skip zero) : AFF29619
AccurateRip v1 signature : A1A67ED5
AccurateRip v2 signature : FB067263
->Accurately ripped (v2, confidence 5/5)
Statistics
Read error : 0
Jitter error (maybe fixed) : 0
Retry sector count : 0
Damaged sector count : 0

Track 14
Pre-gap length : 00:02:56

Track gain : -7.21 dB
Peak : 1.000000
CRC32 hash (test run) : 9E4558E0
CRC32 hash : 9E4558E0
CRC32 hash (skip zero) : CDDBE316
AccurateRip v1 signature : 01467E31
AccurateRip v2 signature : 5CC0A81A
->Accurately ripped (v2, confidence 5/5)
Statistics
Read error : 0
Jitter error (maybe fixed) : 0
Retry sector count : 0
Damaged sector count : 0

Track 15
Pre-gap length : 00:02:56

Track gain : -5.82 dB
Peak : 0.999969
CRC32 hash (test run) : ECC78A85
CRC32 hash : ECC78A85
CRC32 hash (skip zero) : 3B569AD6
AccurateRip v1 signature : C2571FE3
AccurateRip v2 signature : 2C80F0FD
->Accurately ripped (v2, confidence 5/5)
Statistics
Read error : 0
Jitter error (maybe fixed) : 0
Retry sector count : 0
Damaged sector count : 0

Track 16
Pre-gap length : 00:02:56

Track gain : -6.53 dB
Peak : 0.988678
CRC32 hash (test run) : FA5D0EEB
CRC32 hash : FA5D0EEB
CRC32 hash (skip zero) : B55DFA09
AccurateRip v1 signature : BEACC1A8
AccurateRip v2 signature : 479C0F8A
->Accurately ripped (v2, confidence 5/5)
Statistics
Read error : 0
Jitter error (maybe fixed) : 0
Retry sector count : 0
Damaged sector count : 0

Track 17
Pre-gap length : 00:02:57

Track gain : -6.15 dB
Peak : 1.000000
CRC32 hash (test run) : DC5E0810
CRC32 hash : DC5E0810
CRC32 hash (skip zero) : 4371C871
AccurateRip v1 signature : C833FF0C
AccurateRip v2 signature : BAC66B30
->Accurately ripped (v2, confidence 5/5)
Statistics
Read error : 0
Jitter error (maybe fixed) : 0
Retry sector count : 0
Damaged sector count : 0

Track 18
Pre-gap length : 00:02:57

Track gain : -7.58 dB
Peak : 1.000000
CRC32 hash (test run) : 26DE6763
CRC32 hash : 26DE6763
CRC32 hash (skip zero) : 74249C85
AccurateRip v1 signature : DF0392CA
AccurateRip v2 signature : 238A9AD7
->Accurately ripped (v2, confidence 5/5)
Statistics
Read error : 0
Jitter error (maybe fixed) : 0
Retry sector count : 0
Damaged sector count : 0

No errors occurred

End of status report

foobar2000 1.2 / Dynamic Range Meter 1.1.1
log date: 2014-12-06 17:14:01

––––––––––––––––––––––––––––––––––––––––
Analyzed: Tony Bennett & The London Symphony Orchestra And Chorus / The Classic Christmas Album
––––––––––––––––––––––––––––––––––––––––

DR Peak RMS Duration Track
––––––––––––––––––––––––––––––––––––––––
DR10 0.00 dB -12.49 dB 2:11 04-Deck The Halls
DR9 0.00 dB -11.59 dB 3:17 09-O Little Town Of Bethlehem
DR9 0.00 dB -12.86 dB 3:12 14-O Come All Ye Faithful
DR9 0.00 dB -13.38 dB 2:45 17-Silent Night
––––––––––––––––––––––––––––––––––––––––

Number of tracks: 4
Official DR value: DR9

Samplerate: 44100 Hz
Channels: 2
Bits per sample: 16
Bitrate: 823 kbps
Codec: FLAC
================================================================================

––––––––––––––––––––––––––––––––––––––––
Statistics for: 11-I've Got My Love To Keep Me Warm
Number of samples: 9346260
Duration: 3:32
––––––––––––––––––––––––––––––––––––––––

Left Right

Peak Value: -1.84 dB –- -1.84 dB
Avg RMS: -11.22 dB –- -12.27 dB
DR channel: 7.28 dB –- 8.07 dB
––––––––––––––––––––––––––––––––––––––––

Official DR Value: DR8

Samplerate: 44100 Hz
Channels: 2
Bits per sample: 16
Bitrate: 823 kbps
Codec: FLAC
================================================================================
––––––––––––––––––––––––––––––––––––––––
Analyzed: Tony Bennett / The Classic Christmas Album
––––––––––––––––––––––––––––––––––––––––

DR Peak RMS Duration Track
––––––––––––––––––––––––––––––––––––––––
DR7 -1.03 dB -10.98 dB 2:55 01-Santa Claus Is Coming To Town
DR10 -0.10 dB -12.82 dB 3:20 02-My Favorite Things [Album Version]
DR10 0.00 dB -12.82 dB 4:01 03-Christmas Time Is Here
DR10 0.00 dB -12.80 dB 2:39 06-The Christmas Song (Chestnuts Roasting On An Open Fire)
DR10 0.00 dB -12.08 dB 3:18 07-Silver Bells
DR10 0.00 dB -13.47 dB 2:31 08-Have Yourself A Merry Little Christmas
DR11 -0.14 dB -13.89 dB 2:15 10-I Love The Winter Weather
DR10 0.00 dB -14.24 dB 3:28 12-Christmas In Herald Square [Album Version]
DR8 0.00 dB -11.34 dB 2:14 13-I'll Be Home For Christmas
DR11 0.00 dB -13.45 dB 4:19 15-What Child Is This [Previously Unreleased]
DR10 -0.10 dB -12.28 dB 2:17 16-Winter Wonderland [Album Version]
DR8 0.00 dB -10.46 dB 2:06 18-White Christmas [Album Version]
––––––––––––––––––––––––––––––––––––––––

Number of tracks: 12
Official DR value: DR10

Samplerate: 44100 Hz
Channels: 2
Bits per sample: 16
Bitrate: 823 kbps
Codec: FLAC
================================================================================

foobar2000 1.2 / Dynamic Range Meter 1.1.1
log date: 2014-12-06 17:13:57

––––––––––––––––––––––––––––––––––––––––
Statistics for: 05-The First Noel [Voice]
Number of samples: 6219864
Duration: 2:21
––––––––––––––––––––––––––––––––––––––––

Left Right

Peak Value: 0.00 dB –- 0.00 dB
Avg RMS: -12.81 dB –- -13.09 dB
DR channel: 8.85 dB –- 9.41 dB
––––––––––––––––––––––––––––––––––––––––

Official DR Value: DR9

Samplerate: 44100 Hz
Channels: 2
Bits per sample: 16
Bitrate: 823 kbps
Codec: FLAC
================================================================================



All thanks to original releaser - igaann