Enzo Capuano - Storia Mai Scritta (1975) [Reissue 1996]


Enzo Capuano - Storia Mai Scritta (1975) [Reissue 1996]
EAC Rip | FLAC (image+.cue+log) - 211 MB | MP3 CBR 320 kbps (LAME 3.93) - 94 MB | Covers (5 MB) included
Genre: Progressive Rock | RAR 3% Rec. | Label: Mellow Records (MMP 286)

Enzo Capuano released this mostly instrumental gem on a small label in the mid 1970s. Born in Calabria in 1947, Capuano is a talented guitarist and vocalist who would go on to perform outside the progressive realm for years to come. After this album Enzo would do some acting and have a career in the Chemistry field before returning to singing in the late '80s. Often written off by proggers who got the impression this was a strictly singer-songwriter affair it will surprise many who hear it. It's an interesting progressive album in the form of a long, connected instrumental suite combining some of the Italian folk traditions with a bit different approach than many of the other classic period Italian prog bands. Rather than the manic, wild, anything-goes approach of the day Enzo presents a more measured surface sound that finds its own way of sounding special.

Tracklist:
01. Parte I: In Forma Di Vita
02. Parte II: La Nuova Stagione
03. Parte III: Volo Nella Notte
04. Parte IV: Risveglio
05. Parte V: Dal Tempo Vissuto
06. Parte VI: La Natura Dentro
07. Parte VII: Memoria
08. Parte VIII: Il Buio

Total time: 38:10

Exact Audio Copy V0.99 prebeta 4 from 23. January 2008

EAC extraction logfile from 11. December 2008, 12:09

Enzo Capuano / Storia Mai Scritta

Used drive : LITE-ON DVDRW LH-20A1P Adapter: 0 ID: 2

Read mode : Secure
Utilize accurate stream : Yes
Defeat audio cache : Yes
Make use of C2 pointers : No

Read offset correction : 6
Overread into Lead-In and Lead-Out : No
Fill up missing offset samples with silence : Yes
Delete leading and trailing silent blocks : No
Null samples used in CRC calculations : Yes
Used interface : Installed external ASPI interface

Used output format : Internal WAV Routines
Sample format : 44.100 Hz; 16 Bit; Stereo


TOC of the extracted CD

Track | Start | Length | Start sector | End sector
––––––––––––––––––––––––––––-
1 | 0:00.00 | 7:58.22 | 0 | 35871
2 | 7:58.22 | 2:28.10 | 35872 | 46981
3 | 10:26.32 | 5:29.43 | 46982 | 71699
4 | 15:56.00 | 3:53.20 | 71700 | 89194
5 | 19:49.20 | 1:30.67 | 89195 | 96011
6 | 21:20.12 | 5:10.23 | 96012 | 119284
7 | 26:30.35 | 8:06.27 | 119285 | 155761
8 | 34:36.62 | 3:33.05 | 155762 | 171741


Range status and errors

Selected range

Filename D:flogger77Enzo Capuano - Storia Mai Scritta.wav

Peak level 100.0 %
Range quality 99.9 %
Copy CRC 1ABC3758
Copy OK

No errors occurred

End of status report

[CUETools log; Date: 11.12.2016 15:12:20; Version: 2.1.4]
[CTDB TOCID: RXxDcJ5DLrCzKAogeWJsMCPKotE-] disk not present in database.
[AccurateRip ID: 000c0076-004e8e93-6f08f108] found.
Track [ CRC | V2 ] Status
01 [70680966|cfd63d5e] (1+0/1) Accurately ripped
02 [cfe063cf|a3da800c] (1+0/1) Accurately ripped
03 [41e0ebef|d88f6462] (1+0/1) Accurately ripped
04 [f6822acf|7f606273] (1+0/1) Accurately ripped
05 [d5b7546f|e5f3e64a] (1+0/1) Accurately ripped
06 [6d973d31|af575eda] (1+0/1) Accurately ripped
07 [6324ee95|45af60d1] (1+0/1) Accurately ripped
08 [5811a932|b9e5ed8b] (1+0/1) Accurately ripped

Track Peak [ CRC32 ] [W/O NULL] [ LOG ]
– 99,9 [1ABC3758] [BF011003] CRC32
01 95,9 [8CB32A22] [E538759C]
02 87,6 [E68E9646] [8360DF92]
03 99,9 [BC96241F] [99FD9C96]
04 86,0 [17677408] [6331E07C]
05 99,9 [2619AF7C] [626CEDCB]
06 96,8 [3A0ABC36] [05F09F3C]
07 84,1 [CE54BFF6] [DF0F7ACE]
08 93,6 [107260A6] [D8A29E8A]

Thanks to flogger77

LOSSLESS:

_______________

MP3 320 kbps: