Sawyer Brown - The Boys Are Back (1989)


Sawyer Brown - The Boys Are Back (1989)
EAC Rip | FLAC (Img) + Cue + Log ~ 246 Mb | MP3 CBR320 ~ 93 Mb
Scans (JPG, 400 dpi) ~ 32 Mb | RAR 5% Recovery
Country, Country Rock | Capitol Records / Curb Records #CDP 7 92358 2

Sawyer Brown is an American country music band founded in 1981 in Apopka, Florida, by five members of country pop singer Don King's road band: Bobby Randall (guitar) and Jim Scholten (bass guitar), both from Midland, Michigan; Joe Smyth (drums), Gregg "Hobie" Hubbard (keyboards), and Mark Miller (lead vocals). After King retired in 1981, the five members decided to form a band, first choosing the name Savanna before switching to Sawyer Brown, also the name of a road near where they practiced.

The Boys Are Back is a sixth studio album released by the band Sawyer Brown. Released in 1989 on Capitol Records, it features three singles: "The Race Is On" (a cover of a George Jones song), "I Did It for Love", and "Puttin' the Dark Back into the Night".
~ Wiki
| | |

***************


Track List:

01. Puttin' The Dark Back Into The Night [3:08]
02. Rosie Knows [3:47]
03. I Did It For Love [4:35]
04. The Race Is On [2:54]
05. Hey, Hey [2:48]
06. Good While It Lasted [2:56]
07. Locomotive [3:35]
08. The Heartland [4:05]
09. I'm Gonna Miss You After All [3:20]
10. Gettin' Tough (Good Ol' Boy) [4:01]
11. Passin' Train [3:20]

Personnel:

Gregg "Hobie" Hubbard – keyboards, background vocals
Mark Miller – lead vocals
Bobby Randall – electric guitar, background vocals
Jim Scholten – bass guitar
Joe "Curley" Smith – drums

Additional musicians
Eddie Bayers - drums, percussion
Steve Gibson - acoustic guitar, electric guitar
John Barlow Jarvis - keyboards, piano
Jerry Kroon - drums, percussion
Mike Lawler - synthesizer
Mac McAnally – vocal arrangement
Terry McMillan - harmonica, percussion
Mark O'Connor - fiddle
Don Potter - acoustic guitar

Exact Audio Copy V1.1 from 23. June 2015

EAC extraction logfile from 11. December 2016, 13:20

Sawyer Brown / The Boys Are Back

Used drive : HL-DT-STDVDRAM GH22NS40 Adapter: 1 ID: 0

Read mode : Secure
Utilize accurate stream : Yes
Defeat audio cache : Yes
Make use of C2 pointers : No

Read offset correction : 667
Overread into Lead-In and Lead-Out : No
Fill up missing offset samples with silence : Yes
Delete leading and trailing silent blocks : No
Null samples used in CRC calculations : Yes
Used interface : Native Win32 interface for Win NT & 2000

Used output format : User Defined Encoder
Selected bitrate : 1024 kBit/s
Quality : High
Add ID3 tag : No
Command line compressor : C:Program FilesExact Audio CopyFlacflac.exe
Additional command line options : -V -8 -T "Date=%year%" -T "Genre=%genre%" %source%


TOC of the extracted CD

Track | Start | Length | Start sector | End sector
––––––––––––––––––––––––––––-
1 | 0:00.00 | 3:08.35 | 0 | 14134
2 | 3:08.35 | 3:47.27 | 14135 | 31186
3 | 6:55.62 | 4:34.60 | 31187 | 51796
4 | 11:30.47 | 2:53.68 | 51797 | 64839
5 | 14:24.40 | 2:47.52 | 64840 | 77416
6 | 17:12.17 | 2:56.15 | 77417 | 90631
7 | 20:08.32 | 3:34.60 | 90632 | 106741
8 | 23:43.17 | 4:05.20 | 106742 | 125136
9 | 27:48.37 | 3:19.68 | 125137 | 140129
10 | 31:08.30 | 4:01.20 | 140130 | 158224
11 | 35:09.50 | 3:19.57 | 158225 | 173206


Range status and errors

Selected range

Filename I:RipspowermetSawyer Brown - The Boys Are Back.wav

Peak level 98.2 %
Extraction speed 5.2 X
Range quality 99.9 %
Test CRC 2D645558
Copy CRC 2D645558
Copy OK

No errors occurred


AccurateRip summary

Track 1 accurately ripped (confidence 5) [0E111B6E] (AR v2)
Track 2 accurately ripped (confidence 5) [254C1D08] (AR v2)
Track 3 accurately ripped (confidence 5) [47AEE868] (AR v2)
Track 4 accurately ripped (confidence 5) [80557FC8] (AR v2)
Track 5 accurately ripped (confidence 5) [6011AFF7] (AR v2)
Track 6 accurately ripped (confidence 5) [DF4F0C76] (AR v2)
Track 7 accurately ripped (confidence 5) [60538B9A] (AR v2)
Track 8 accurately ripped (confidence 5) [89A8D3FE] (AR v2)
Track 9 accurately ripped (confidence 5) [9FCE2E75] (AR v2)
Track 10 accurately ripped (confidence 5) [39E63A96] (AR v2)
Track 11 accurately ripped (confidence 5) [E950699B] (AR v2)

All tracks accurately ripped

End of status report

–– CUETools DB Plugin V2.1.6

[CTDB TOCID: AdAXbUtpCsiCMl01yDi5clBOHCM-] found
Submit result: already submitted
Track | CTDB Status
1 | ( 6/10) Accurately ripped
2 | ( 6/10) Accurately ripped
3 | ( 6/10) Accurately ripped
4 | ( 6/10) Accurately ripped
5 | ( 6/10) Accurately ripped
6 | ( 6/10) Accurately ripped
7 | ( 6/10) Accurately ripped
8 | ( 6/10) Accurately ripped
9 | ( 6/10) Accurately ripped
10 | ( 6/10) Accurately ripped
11 | ( 6/10) Accurately ripped


==== Log checksum C74BF758BA8F21F71AA7B9BD850C21410AB6B05D457DE82BF34E967A3188ACDC ====

foobar2000 1.2.6 / Dynamic Range Meter 1.1.1
log date: 2016-12-11 22:36:11

––––––––––––––––––––––––––––––––––––––––
Analyzed: Sawyer Brown / The Boys Are Back
––––––––––––––––––––––––––––––––––––––––

DR Peak RMS Duration Track
––––––––––––––––––––––––––––––––––––––––
DR12 -0.89 dB -15.51 dB 3:08 01-Puttin' The Dark Back Into The Night
DR13 -1.92 dB -17.98 dB 3:47 02-Rosie Knows
DR12 -2.00 dB -17.29 dB 4:35 03-I Did It For Love
DR12 -1.95 dB -16.35 dB 2:54 04-The Race Is On
DR13 -0.42 dB -15.81 dB 2:48 05-Hey, Hey
DR11 -1.68 dB -16.96 dB 2:56 06-Good While It Lasted
DR13 -1.59 dB -17.53 dB 3:35 07-Locomotive
DR13 -0.47 dB -17.53 dB 4:05 08-The Heartland
DR12 -0.94 dB -16.23 dB 3:20 09-I'm Gonna Miss You After All
DR13 -0.15 dB -15.81 dB 4:01 10-Gettin' Tough (Good Ol' Boy)
DR13 -4.27 dB -22.29 dB 3:20 11-Passin' Train
––––––––––––––––––––––––––––––––––––––––

Number of tracks: 11
Official DR value: DR12

Samplerate: 44100 Hz
Channels: 2
Bits per sample: 16
Bitrate: 849 kbps
Codec: FLAC
================================================================================

[CUETools log; Date: 11.12.2016 22:36:13; Version: 2.1.5]
[CTDB TOCID: AdAXbUtpCsiCMl01yDi5clBOHCM-] found.
Track | CTDB Status
1 | ( 6/10) Accurately ripped
2 | ( 6/10) Accurately ripped
3 | ( 6/10) Accurately ripped
4 | ( 6/10) Accurately ripped
5 | ( 6/10) Accurately ripped
6 | ( 6/10) Accurately ripped
7 | ( 6/10) Accurately ripped
8 | ( 6/10) Accurately ripped
9 | ( 6/10) Accurately ripped
10 | ( 6/10) Accurately ripped
11 | ( 6/10) Accurately ripped
[AccurateRip ID: 000fc4e9-00889afe-7809050b] found.
Track [ CRC | V2 ] Status
01 [06d05d36|0e111b6e] (04+05/11) Accurately ripped
02 [ec718028|254c1d08] (04+05/11) Accurately ripped
03 [8b99179e|47aee868] (04+05/11) Accurately ripped
04 [8f3306f4|80557fc8] (04+05/11) Accurately ripped
05 [a7e950ee|6011aff7] (04+05/11) Accurately ripped
06 [7839caa9|df4f0c76] (04+05/09) Accurately ripped
07 [e0c6abcf|60538b9a] (04+05/09) Accurately ripped
08 [4b603d22|89a8d3fe] (04+05/11) Accurately ripped
09 [1ba227fb|9fce2e75] (04+05/11) Accurately ripped
10 [096b505b|39e63a96] (03+05/10) Accurately ripped
11 [2db0c293|e950699b] (03+05/10) Accurately ripped

Track Peak [ CRC32 ] [W/O NULL] [ LOG ]
– 98,2 [2D645558] [26169A25] CRC32
01 90,2 [412693B8] [4E6C4595]
02 80,1 [71ABF8AE] [C5252FC0]
03 79,4 [763E56BA] [4F8BD44A]
04 79,9 [EEE3D598] [231776B9]
05 95,2 [6EE8306F] [F6D3B786]
06 82,3 [7ABE74F0] [382CAF3A]
07 83,3 [6A872C41] [D72B8FE9]
08 94,7 [8BC616DD] [6D76699C]
09 89,7 [027C416A] [65F694F9]
10 98,2 [F009ABB9] [0DCFC899]
11 61,1 [EF30C041] [44F68FB5]



All thanks go to powermet



Download:
NovaFile: