U-Nam - The Past Builds The Future (2005)


U-Nam - The Past Builds The Future (2005)
EAC Rip | FLAC (Img) + Cue + Log ~ 552 Mb | MP3 CBR320 ~ 177 Mb
Scans (JPG, 600 dpi) ~ 58 Mb | RAR 5% Recovery
Smooth Jazz, R&B, Neo-Soul | Trippin'n'Rhythm Records #64494-90519-2

The Past Builds The Future is the first album by U-Nam. Accomplished producer, composer and guitarist U-Nam is best known for his #1 hit “Street Life” on the US Billboard charts in 2007. But it isn’t just in Smooth Jazz that he has proven himself as a force to be reckoned with, he is also well-known as a respected songwriter and producer in France in the Pop and R&B genres having worked with artists such as Barry White, Kool & the Gang, Billy Paul, French Pop-Idol, MC Solaar and more. U-Nam has had the opportunity to perform in Russia, Dubai, Malaysia, and tour the US and Europe as part of major festivals.
| |

***************


Track List:

01. From M.A. To L.A. [4:56]
02. Love's Taken Over [5:38]
03. I'm Only U-Nam [4:15]
04. Ca Va La Faire! [4:27]
05. L.A. Party [4:45]
06. Blue Mood [4:52]
07. Strike First [4:18]
08. My Inspiration [6:30]
09. Soul Cantine [4:46]
10. Right Here, Right Now [6:51]
11. Higher [5:03]
12. French Flavor [6:10]
13. Groovin' Paris [5:39]
14. I'm Only U-Nam (Original Version Us) [Bonus Track] [5:28]

Exact Audio Copy V1.0 beta 3 from 29. August 2011

Отчёт EAC об извлечении, выполненном 11. ноября 2016, 10:23

U-Nam / The Past Builds The Future

Дисковод: ATAPI iHAS424 A Adapter: 0 ID: 0

Режим чтения : Достоверность
Использование точного потока : Да
Отключение кэша аудио : Да
Использование указателей C2 : Нет

Коррекция смещения при чтении : 6
Способность читать области Lead-in и Lead-out : Нет
Заполнение пропущенных сэмплов тишиной : Да
Удаление блоков с тишиной в начале и конце : Нет
При вычислениях CRC использовались нулевые сэмплы : Да
Интерфейс : Установленный внешний ASPI-интерфейс

Выходной формат : Пользовательский кодировщик
Выбранный битрейт : 1024 kBit/s
Качество : Высокий
Добавление ID3-тега : Нет
Утилита сжатия : C:Program FilesExact Audio CopyFLACFLAC.EXE
Дополнительные параметры : -8 -V -T "ARTIST=%artist%" -T "ALBUM=%albumtitle%" -T "DATE=%year%" -T "GENRE=%genre%" -T "COMMENT=ripped by izia1956" %source%


TOC извлечённого CD

Трек | Старт | Длительность | Начальный сектор | Конечный сектор
––––––––––––––––––––––––––––––––––-
1 | 0:00.00 | 4:55.74 | 0 | 22198
2 | 4:55.74 | 5:37.73 | 22199 | 47546
3 | 10:33.72 | 4:14.58 | 47547 | 66654
4 | 14:48.55 | 4:27.24 | 66655 | 86703
5 | 19:16.04 | 4:44.42 | 86704 | 108045
6 | 24:00.46 | 4:51.73 | 108046 | 129943
7 | 28:52.44 | 4:17.73 | 129944 | 149291
8 | 33:10.42 | 6:29.74 | 149292 | 178540
9 | 39:40.41 | 4:45.74 | 178541 | 199989
10 | 44:26.40 | 6:50.63 | 199990 | 230802
11 | 51:17.28 | 5:02.61 | 230803 | 253513
12 | 56:20.14 | 6:10.34 | 253514 | 281297
13 | 62:30.48 | 5:39.14 | 281298 | 306736
14 | 68:09.62 | 5:27.73 | 306737 | 331334


Характеристики диапазона извлечения и сообщения об ошибках

Выбранный диапазон

Имя файла D:BitCometU-Nam (flac)2005 - The Past Builds The FutureU-Nam - The Past Builds The Future.wav

Пиковый уровень 100.0 %
Скорость извлечения 6.8 X
Качество диапазона 100.0 %
CRC теста F77535B5
CRC копии F77535B5
Копирование… OK

Ошибок не произошло


AccurateRip: сводка

Трек 1 : извлечено точно (доверие 3) [FBB205D8] (AR v2)
Трек 2 : извлечено точно (доверие 3) [C42CBCBA] (AR v2)
Трек 3 : извлечено точно (доверие 3) [87B0EE22] (AR v2)
Трек 4 : извлечено точно (доверие 3) [BAF3601A] (AR v2)
Трек 5 : извлечено точно (доверие 3) [6548A5D8] (AR v2)
Трек 6 : извлечено точно (доверие 3) [2DF5DF66] (AR v2)
Трек 7 : извлечено точно (доверие 1) [B71B4BB3] (AR v2)
Трек 8 : извлечено точно (доверие 3) [DB1EBD51] (AR v2)
Трек 9 : извлечено точно (доверие 3) [D095C950] (AR v2)
Трек 10 : извлечено точно (доверие 3) [35AADB9E] (AR v2)
Трек 11 : извлечено точно (доверие 3) [8B306412] (AR v2)
Трек 12 : извлечено точно (доверие 3) [CEDF4B5F] (AR v2)
Трек 13 : извлечено точно (доверие 3) [47ED5270] (AR v2)
Трек 14 : извлечено точно (доверие 3) [F0836F9D] (AR v2)

Все треки извлечены точно

Конец отчёта

==== Контрольная сумма отчёта D69CD5FB4DA54F4657005DB89D44C36D153C10755738FC4C8F2F92797B2F73A6 ====

foobar2000 1.2.6 / Dynamic Range Meter 1.1.1
log date: 2016-12-10 00:42:56

––––––––––––––––––––––––––––––––––––––––
Analyzed: U-Nam / The Past Builds The Future
––––––––––––––––––––––––––––––––––––––––

DR Peak RMS Duration Track
––––––––––––––––––––––––––––––––––––––––
DR6 0.00 dB -8.39 dB 4:56 01-From M.A. To L.A.
DR5 0.00 dB -6.61 dB 5:38 02-Love's Taken Over
DR7 0.00 dB -8.59 dB 4:15 03-I'm Only U-Nam
DR7 0.00 dB -8.56 dB 4:27 04-Ca Va La Faire!
DR6 0.00 dB -6.86 dB 4:45 05-L.A. Party
DR7 0.00 dB -8.90 dB 4:52 06-Blue Mood
DR6 0.00 dB -7.40 dB 4:18 07-Strike First
DR6 0.00 dB -7.86 dB 6:30 08-My Inspiration
DR6 0.00 dB -7.23 dB 4:46 09-Soul Cantine
DR6 0.00 dB -7.79 dB 6:51 10-Right Here, Right Now
DR6 0.00 dB -7.62 dB 5:03 11-Higher
DR6 0.00 dB -8.06 dB 6:10 12-French Flavor
DR6 0.00 dB -8.53 dB 5:39 13-Groovin' Paris
DR7 0.00 dB -8.26 dB 5:28 14-I'm Only U-Nam (Original Version Us) [Bonus Track]
––––––––––––––––––––––––––––––––––––––––

Number of tracks: 14
Official DR value: DR6

Samplerate: 44100 Hz
Channels: 2
Bits per sample: 16
Bitrate: 997 kbps
Codec: FLAC
================================================================================

[CUETools log; Date: 11.12.2016 23:58:40; Version: 2.1.5]
[CTDB TOCID: O2WovOoeRc81fq.pFgp8Ne0CHlk-] found.
Track | CTDB Status
1 | (1/1) Accurately ripped
2 | (1/1) Accurately ripped
3 | (1/1) Accurately ripped
4 | (1/1) Accurately ripped
5 | (1/1) Accurately ripped
6 | (1/1) Accurately ripped
7 | (1/1) Accurately ripped
8 | (1/1) Accurately ripped
9 | (1/1) Accurately ripped
10 | (1/1) Accurately ripped
11 | (1/1) Accurately ripped
12 | (1/1) Accurately ripped
13 | (1/1) Accurately ripped
14 | (1/1) Accurately ripped
[AccurateRip ID: 0024821d-0188e3a3-d811410e] found.
Track [ CRC | V2 ] Status
01 [4366ca10|fbb205d8] (0+4/4) Accurately ripped
02 [c0f2bdcf|c42cbcba] (0+4/4) Accurately ripped
03 [0c67d33e|87b0ee22] (0+4/4) Accurately ripped
04 [62b191e2|baf3601a] (0+4/4) Accurately ripped
05 [2400fe48|6548a5d8] (0+4/4) Accurately ripped
06 [183168c9|2df5df66] (0+4/4) Accurately ripped
07 [efafff8d|b71b4bb3] (0+2/2) Accurately ripped
08 [c7b76cd0|db1ebd51] (0+4/4) Accurately ripped
09 [03b38a37|d095c950] (0+4/4) Accurately ripped
10 [907488c5|35aadb9e] (0+4/4) Accurately ripped
11 [4dee7f47|8b306412] (0+4/4) Accurately ripped
12 [1677b7bc|cedf4b5f] (0+4/4) Accurately ripped
13 [962d2798|47ed5270] (0+4/4) Accurately ripped
14 [8e6f8e6b|f0836f9d] (0+4/4) Accurately ripped

Track Peak [ CRC32 ] [W/O NULL] [ LOG ]
– 100,0 [F77535B5] [E68AB45A] CRC32
01 100,0 [299FAEAC] [FA0AA60C]
02 100,0 [A1B82917] [98C289F9]
03 100,0 [2937C587] [4B86D162]
04 100,0 [F0F5241C] [2CB84EEF]
05 100,0 [C2003B92] [A5620F63]
06 100,0 [68FA3653] [5BDA2848]
07 100,0 [D21F0DBF] [1440CC6E]
08 100,0 [604E94B6] [684C81B8]
09 100,0 [73DEF866] [E63E7BC0]
10 100,0 [93744A65] [91201395]
11 100,0 [2280E26A] [596B95B4]
12 100,0 [E41DB07E] [E7BF52A2]
13 100,0 [A0D40C51] [0A613B3D]
14 100,0 [B57F016B] [EA5F6CBE]


All thanks go to izia1956



Download:
NovaFile: