Betty Wright ‎- Wright Back At You (1983) [2016 FTG]


Betty Wright ‎- Wright Back At You (1983) [2016 FTG]
EAC Rip | FLAC (Tracks) +CUE, LOG | 542 MB | Covers Included
Genre: Soul | Label: Funkytowngrooves | Catalog Number: FTG 436

This Marlon Jackson production recorded in Jamaica hits on all cylinders. "Burning Desire," a Marlon and Tito Jackson song, exploits the disco groove in an infectious way, the rhythm track and trappings, including Luther Vandross on backing vocals, will set you right. "She's Older Now" has a subtle reggae groove with Wright's sweet vocals and squalls, and Vandross again contributed behind the groove. "Be Your Friend," the third straight winner, has a shuffling beat and polyrhythms which invite your best dance moves. Marlon duets with Wright on "I Promise You," a floater accented by a strident sax and romantic lyrics. An enthusiastic "Live, Love, Rejoice" continues the winning tradition, the title is sung like a cheerleading chant, with a tight guitar adding seasoning. Marlon, Randy, Tito, and Jackie Jackson wrote "Special Love," which Wright starts in an airy falsetto like Jackie Jackson's; the reggae rhythms makes this work, and Wright's singing toughens as the tape rolls. "Show Me," "Gimme Just Another Try," and "Reggae This Way " mesh American soul with Jamaican reggae. - AllMusic Review by Andrew Hamilton

Exact Audio Copy V1.2 from 12. August 2016

EAC extraction logfile from 7. December 2016, 18:55

Betty Wright / Wright Back At You

Used drive : GENERIC CDRCB05 Adapter: 1 ID: 1

Read mode : Secure
Utilize accurate stream : Yes
Defeat audio cache : Yes
Make use of C2 pointers : No

Read offset correction : 102
Overread into Lead-In and Lead-Out : No
Fill up missing offset samples with silence : Yes
Delete leading and trailing silent blocks : No
Null samples used in CRC calculations : Yes
Used interface : Native Win32 interface for Win NT & 2000
Gap handling : Appended to previous track

Used output format : User Defined Encoder
Selected bitrate : 1024 kBit/s
Quality : High
Add ID3 tag : No
Command line compressor : C:Program Files (x86)Exact Audio CopyFlacflac.exe
Additional command line options : -T "artist=%artist%" -T "title=%title%" -T "album=%albumtitle%" -T "date=%year%" -T "tracknumber=%tracknr%" -T "genre=%genre%" -5 %source%


TOC of the extracted CD

Track | Start | Length | Start sector | End sector
––––––––––––––––––––––––––––-
1 | 0:00.00 | 3:58.59 | 0 | 17908
2 | 3:58.59 | 6:26.06 | 17909 | 46864
3 | 10:24.65 | 4:22.14 | 46865 | 66528
4 | 14:47.04 | 4:54.45 | 66529 | 88623
5 | 19:41.49 | 4:10.65 | 88624 | 107438
6 | 23:52.39 | 5:11.09 | 107439 | 130772
7 | 29:03.48 | 3:32.69 | 130773 | 146741
8 | 32:36.42 | 3:55.09 | 146742 | 164375
9 | 36:31.51 | 4:18.57 | 164376 | 183782
10 | 40:50.33 | 3:14.45 | 183783 | 198377
11 | 44:05.03 | 7:16.13 | 198378 | 231090
12 | 51:21.16 | 3:57.51 | 231091 | 248916
13 | 55:18.67 | 4:01.42 | 248917 | 267033


Track 1

Filename K:POSTBetty Wright ‎- Wright Back At You (1983) [2016 FTG]1. Burning Desire.wav

Pre-gap length 0:00:02.00

Peak level 100.0 %
Extraction speed 1.5 X
Track quality 100.0 %
Test CRC 94180EE8
Copy CRC 94180EE8
Track not present in AccurateRip database
Copy OK

Track 2

Filename K:POSTBetty Wright ‎- Wright Back At You (1983) [2016 FTG]2. She's Older Now.wav

Pre-gap length 0:00:02.00

Peak level 100.0 %
Extraction speed 1.6 X
Track quality 99.9 %
Test CRC 7CBD888D
Copy CRC 7CBD888D
Track not present in AccurateRip database
Copy OK

Track 3

Filename K:POSTBetty Wright ‎- Wright Back At You (1983) [2016 FTG]3. Be Your Friend.wav

Pre-gap length 0:00:02.00

Peak level 100.0 %
Extraction speed 1.9 X
Track quality 100.0 %
Test CRC 8F9E03A6
Copy CRC 8F9E03A6
Track not present in AccurateRip database
Copy OK

Track 4

Filename K:POSTBetty Wright ‎- Wright Back At You (1983) [2016 FTG]4. I Promise You.wav

Pre-gap length 0:00:01.74

Peak level 100.0 %
Extraction speed 2.0 X
Track quality 100.0 %
Test CRC E2FCAAC9
Copy CRC E2FCAAC9
Track not present in AccurateRip database
Copy OK

Track 5

Filename K:POSTBetty Wright ‎- Wright Back At You (1983) [2016 FTG]5. Live, Love, Rejoice.wav

Pre-gap length 0:00:02.00

Peak level 100.0 %
Extraction speed 2.1 X
Track quality 100.0 %
Test CRC 2DDFE998
Copy CRC 2DDFE998
Track not present in AccurateRip database
Copy OK

Track 6

Filename K:POSTBetty Wright ‎- Wright Back At You (1983) [2016 FTG]6. Special Love.wav

Pre-gap length 0:00:02.00

Peak level 100.0 %
Extraction speed 2.3 X
Track quality 100.0 %
Test CRC 1FA4226F
Copy CRC 1FA4226F
Track not present in AccurateRip database
Copy OK

Track 7

Filename K:POSTBetty Wright ‎- Wright Back At You (1983) [2016 FTG]7. Show Me.wav

Pre-gap length 0:00:02.09

Peak level 100.0 %
Extraction speed 2.3 X
Track quality 100.0 %
Test CRC CF575F28
Copy CRC CF575F28
Track not present in AccurateRip database
Copy OK

Track 8

Filename K:POSTBetty Wright ‎- Wright Back At You (1983) [2016 FTG]8. Reggae The Night Away.wav

Pre-gap length 0:00:02.00

Peak level 100.0 %
Extraction speed 2.4 X
Track quality 100.0 %
Test CRC 2F80209F
Copy CRC 2F80209F
Track not present in AccurateRip database
Copy OK

Track 9

Filename K:POSTBetty Wright ‎- Wright Back At You (1983) [2016 FTG]9. Gimme Just Another Try.wav

Pre-gap length 0:00:01.74

Peak level 100.0 %
Extraction speed 2.6 X
Track quality 100.0 %
Test CRC 8C3479B4
Copy CRC 8C3479B4
Track not present in AccurateRip database
Copy OK

Track 10

Filename K:POSTBetty Wright ‎- Wright Back At You (1983) [2016 FTG]10. Burning Desire (7'' Version).wav

Pre-gap length 0:00:01.73

Peak level 100.0 %
Extraction speed 2.5 X
Track quality 100.0 %
Test CRC 7F63C55A
Copy CRC 7F63C55A
Track not present in AccurateRip database
Copy OK

Track 11

Filename K:POSTBetty Wright ‎- Wright Back At You (1983) [2016 FTG]11. Burning Desire (12'' Version).wav

Pre-gap length 0:00:02.00

Peak level 100.0 %
Extraction speed 2.9 X
Track quality 100.0 %
Test CRC 60450AF5
Copy CRC 60450AF5
Track not present in AccurateRip database
Copy OK

Track 12

Filename K:POSTBetty Wright ‎- Wright Back At You (1983) [2016 FTG]12. She's Older Now (7'' Version).wav

Pre-gap length 0:00:02.00

Peak level 100.0 %
Extraction speed 2.5 X
Track quality 99.9 %
Test CRC 38A71D88
Copy CRC 38A71D88
Track not present in AccurateRip database
Copy OK

Track 13

Filename K:POSTBetty Wright ‎- Wright Back At You (1983) [2016 FTG]13. Special Love (7'' Version).wav

Pre-gap length 0:00:01.74

Peak level 100.0 %
Extraction speed 2.9 X
Track quality 100.0 %
Test CRC E59ABB37
Copy CRC E59ABB37
Track not present in AccurateRip database
Copy OK


None of the tracks are present in the AccurateRip database

No errors occurred

End of status report

–– CUETools DB Plugin V2.1.6

[CTDB TOCID: fk3evzjYzmTGGKaBVtuRA95BWKc-] disk not present in database
Submit result: fk3evzjYzmTGGKaBVtuRA95BWKc- has been uploaded


Tracklist:
01. Burning Desire
02. She's Older Now
03. Be Your Friend
04. I Promise You
05. Live, Love, Rejoice
06. Special Love
07. Show Me
08. Reggae The Night Away
09. Gimme Just Another Try

Bonus Tracks
10. Burning Love (7" Version)
11. Burning Love (12" Version)
12. She's Older Now (7" Version)
13. Special Love (7" Verison)