Betty Wright ‎- Betty Wright (1981) [2016 FTG]


Betty Wright ‎- Betty Wright (1981) [2016 FTG]
EAC Rip | FLAC (Tracks) +CUE, LOG | 551 MB | Covers Included
Genre: Soul | Label: Funkytowngrooves | Catalog Number: FTG-435

Bessie Regina Norris, better known by her stage name, Betty Wright (born December 21, 1953), is a Miami-based soul and R&B singer-songwriter, who rose to fame in the 1970s with hits such as "Clean Up Woman" and "Tonight is the Night". After leaving TK Records Betty moved on to a bigger label, signing with Epic where her self-titled album was released. The album was notable for the minor Stevie Wonder-composed hit, "What Are You Gonna Do With It". That same year, she contributed vocals on Richard "Dimples" Fields' Dimples album, especially on the hit, "She's Got Papers on Me", where she catches Fields singing out about another woman, verbally attacking him in the ending monologue. In 1983, the album Wright Back at You featured compositions by Marlon Jackson, of the Jackson Five.

Exact Audio Copy V1.2 from 12. August 2016

EAC extraction logfile from 7. December 2016, 17:30

Betty Wright / Betty Wright

Used drive : GENERIC CDRCB05 Adapter: 1 ID: 1

Read mode : Secure
Utilize accurate stream : Yes
Defeat audio cache : Yes
Make use of C2 pointers : No

Read offset correction : 102
Overread into Lead-In and Lead-Out : No
Fill up missing offset samples with silence : Yes
Delete leading and trailing silent blocks : No
Null samples used in CRC calculations : Yes
Used interface : Native Win32 interface for Win NT & 2000
Gap handling : Appended to previous track

Used output format : User Defined Encoder
Selected bitrate : 1024 kBit/s
Quality : High
Add ID3 tag : No
Command line compressor : C:Program Files (x86)Exact Audio CopyFlacflac.exe
Additional command line options : -T "artist=%artist%" -T "title=%title%" -T "album=%albumtitle%" -T "date=%year%" -T "tracknumber=%tracknr%" -T "genre=%genre%" -5 %source%


TOC of the extracted CD

Track | Start | Length | Start sector | End sector
––––––––––––––––––––––––––––-
1 | 0:00.00 | 4:32.04 | 0 | 20403
2 | 4:32.04 | 3:43.71 | 20404 | 37199
3 | 8:16.00 | 4:26.71 | 37200 | 57220
4 | 12:42.71 | 4:19.20 | 57221 | 76665
5 | 17:02.16 | 4:17.54 | 76666 | 95994
6 | 21:19.70 | 4:08.23 | 95995 | 114617
7 | 25:28.18 | 3:26.44 | 114618 | 130111
8 | 28:54.62 | 4:10.33 | 130112 | 148894
9 | 33:05.20 | 7:42.57 | 148895 | 183601
10 | 40:48.02 | 3:43.43 | 183602 | 200369
11 | 44:31.45 | 4:07.73 | 200370 | 218967
12 | 48:39.43 | 4:14.48 | 218968 | 238065
13 | 52:54.16 | 5:55.38 | 238066 | 264728
14 | 58:49.54 | 3:59.54 | 264729 | 282707


Track 1

Filename K:POSTBetty Wright ‎- Betty Wright (1981) [2016 FTG]1. What Are You Going To Do With It.wav

Pre-gap length 0:00:02.00

Peak level 100.0 %
Extraction speed 2.5 X
Track quality 100.0 %
Test CRC 05C69F23
Copy CRC 05C69F23
Track not present in AccurateRip database
Copy OK

Track 2

Filename K:POSTBetty Wright ‎- Betty Wright (1981) [2016 FTG]2. I Like Your Loving.wav

Pre-gap length 0:00:02.00

Peak level 100.0 %
Extraction speed 2.7 X
Track quality 100.0 %
Test CRC F616FBA1
Copy CRC F616FBA1
Track not present in AccurateRip database
Copy OK

Track 3

Filename K:POSTBetty Wright ‎- Betty Wright (1981) [2016 FTG]3. Indivisible.wav

Pre-gap length 0:00:02.01

Peak level 99.5 %
Extraction speed 2.9 X
Track quality 100.0 %
Test CRC ABC0ADBD
Copy CRC ABC0ADBD
Track not present in AccurateRip database
Copy OK

Track 4

Filename K:POSTBetty Wright ‎- Betty Wright (1981) [2016 FTG]4. Body Slang.wav

Pre-gap length 0:00:02.00

Peak level 100.0 %
Extraction speed 2.8 X
Track quality 99.9 %
Test CRC 6CEFD33F
Copy CRC 6CEFD33F
Track not present in AccurateRip database
Copy OK

Track 5

Filename K:POSTBetty Wright ‎- Betty Wright (1981) [2016 FTG]5. Dancin' On The One.wav

Pre-gap length 0:00:01.74

Peak level 100.0 %
Extraction speed 3.4 X
Track quality 100.0 %
Test CRC 835A088E
Copy CRC 835A088E
Track not present in AccurateRip database
Copy OK

Track 6

Filename K:POSTBetty Wright ‎- Betty Wright (1981) [2016 FTG]6. Give A Smile.wav

Pre-gap length 0:00:02.00

Peak level 100.0 %
Extraction speed 3.1 X
Track quality 99.9 %
Test CRC 1240F2A3
Copy CRC 1240F2A3
Track not present in AccurateRip database
Copy OK

Track 7

Filename K:POSTBetty Wright ‎- Betty Wright (1981) [2016 FTG]7. I Come To You.wav

Pre-gap length 0:00:02.00

Peak level 98.1 %
Extraction speed 3.5 X
Track quality 100.0 %
Test CRC F4DC27EF
Copy CRC F4DC27EF
Track not present in AccurateRip database
Copy OK

Track 8

Filename K:POSTBetty Wright ‎- Betty Wright (1981) [2016 FTG]8. Make Me Love The Rain.wav

Pre-gap length 0:00:02.00

Peak level 100.0 %
Extraction speed 3.8 X
Track quality 100.0 %
Test CRC 7C64916B
Copy CRC 7C64916B
Track not present in AccurateRip database
Copy OK

Track 9

Filename K:POSTBetty Wright ‎- Betty Wright (1981) [2016 FTG]9. One Bad Habit (And That's Loving You!).wav

Pre-gap length 0:00:02.00

Peak level 100.0 %
Extraction speed 4.4 X
Track quality 100.0 %
Test CRC 64D87713
Copy CRC 64D87713
Track not present in AccurateRip database
Copy OK

Track 10

Filename K:POSTBetty Wright ‎- Betty Wright (1981) [2016 FTG]10. What Are You Going To Do With It (7'' Version).wav

Pre-gap length 0:00:02.00

Peak level 100.0 %
Extraction speed 4.2 X
Track quality 100.0 %
Test CRC 3C32DC2A
Copy CRC 3C32DC2A
Track not present in AccurateRip database
Copy OK

Track 11

Filename K:POSTBetty Wright ‎- Betty Wright (1981) [2016 FTG]11. What Are You Going To Do With It (12'' Version).wav

Pre-gap length 0:00:02.00

Peak level 100.0 %
Extraction speed 3.9 X
Track quality 99.9 %
Test CRC 819A15F4
Copy CRC 819A15F4
Track not present in AccurateRip database
Copy OK

Track 12

Filename K:POSTBetty Wright ‎- Betty Wright (1981) [2016 FTG]12. I Believe In You (7'' Version).wav

Pre-gap length 0:00:02.00

Peak level 100.0 %
Extraction speed 4.0 X
Track quality 99.9 %
Test CRC 6D79FF3A
Copy CRC 6D79FF3A
Track not present in AccurateRip database
Copy OK

Track 13

Filename K:POSTBetty Wright ‎- Betty Wright (1981) [2016 FTG]13. Goodbye You, Hello Him (12'' Special Version).wav

Pre-gap length 0:00:02.00

Peak level 99.5 %
Extraction speed 4.9 X
Track quality 100.0 %
Test CRC A2E65CA2
Copy CRC A2E65CA2
Track not present in AccurateRip database
Copy OK

Track 14

Filename K:POSTBetty Wright ‎- Betty Wright (1981) [2016 FTG]14. Body Slang (7'' Version).wav

Pre-gap length 0:00:02.00

Peak level 100.0 %
Extraction speed 4.2 X
Track quality 99.9 %
Test CRC 73B10E54
Copy CRC 73B10E54
Track not present in AccurateRip database
Copy OK


None of the tracks are present in the AccurateRip database

No errors occurred

End of status report

–– CUETools DB Plugin V2.1.6

[CTDB TOCID: eSLKBSDTyiMJ5d4jswr7zBsIjLs-] disk not present in database
Submit result: eSLKBSDTyiMJ5d4jswr7zBsIjLs- has been uploaded


Tracklist:
01. What Are You Going To Do With It
02. I Like Your Loving
03. Indivisible
04. Body Slang
05. Dancin' On The One
06. Give A Smile
07. I Come To You
08. Make Me Love The Rain
09. One Bad Habit (And That's Loving You)

Bonus Tracks
10. What Are You Going To Do With It (7" Version)
11. What Are You Going To Do With It (12" Version)
12. I Believe In You (7" Version)
13. Goodbye You, Hello Him (12" Special Version)
14. Body Slang (7" Version)