VA - The Songlines Anthology (1996)


VA - The Songlines Anthology (1996)
EAC | FLAC | Image (Cue&Log) ~ 296 Mb (incl 5%) | Mp3 (CBR320) ~ 171 Mb (incl 5%) | Scans ~ 79 Mb
Genre: Avant-Garde Jazz, Free Jazz | Label: Songlines | # SGL 4201-2 | Time: 01:11:23

This is the right way for a label to record an anthology of tracks featuring its artists. First, eleven outstanding groups are featured. Second, the anthology includes pieces never before released on CD, rather than selections from previously issued CDs. The exquisite production and extensive liner notes with full discographical information and bonus bibliography make this a "must-buy" for lovers of adventurous jazz. Among the artists represented are trumpeter Dave Douglas, pianist Paul Plimley, clarinetist François Houle, tenor saxophonist Ellery Eskelin, guitarist Ben Monder, and alto saxophonist Briggan Krauss. With a lineup of that caliber, it is no wonder Songlines has emerged as one of the world's up-and-coming small jazz labels. Kudos to producer Tony Rief for fulfilling an ambitious vision.

Review by Steve Loewy, Allmusic.com




Tracklist:

01. Babkas - This (10:27)
02. Patrick Zimmerli Ensemble - Where Have I (10:43)
03. Francois Houle & Andreas Kahre - Meandre (04:43)
04. Human Feel - Tic, Tics (04:40)
05. Ben Monder Trio - Lactophobia (03:27)
06. Andy Laster's Hydra - Polyogue (06:35)
07. The Recyclers - Houle (02:22)
08. Ellery Eskelin - Untiltled One (07:59)
09. Matt Rogalsky - Song (without words) (03:31)
10. Paul Plimley - Persistence of the Dragon (06:37)
11. Dave Douglas' Tiny Bell Trio - Head-on Kouvlodsko (10:15)


Exact Audio Copy V1.0 beta 2 from 29. April 2011

EAC extraction logfile from 11. December 2016, 15:15

Various Artists / The Songlines Anthology

Used drive : Optiarc DVD RW AD-5280S Adapter: 1 ID: 1

Read mode : Secure
Utilize accurate stream : Yes
Defeat audio cache : Yes
Make use of C2 pointers : No

Read offset correction : 48
Overread into Lead-In and Lead-Out : No
Fill up missing offset samples with silence : Yes
Delete leading and trailing silent blocks : No
Null samples used in CRC calculations : Yes
Used interface : Installed external ASPI interface

Used output format : User Defined Encoder
Selected bitrate : 128 kBit/s
Quality : High
Add ID3 tag : No
Command line compressor : C:Program FilesFLACflac.exe
Additional command line options : -V -8 -T "Genre=%genre%" -T "Artist=%artist%" -T "Title=%title%" -T "Album=%albumtitle%" -T "Date=%year%" -T "Tracknumber=%tracknr%" -T "Comment=%comment%" %source%


TOC of the extracted CD

Track | Start | Length | Start sector | End sector
––––––––––––––––––––––––––––-
1 | 0:00.00 | 10:27.64 | 0 | 47088
2 | 10:27.64 | 10:43.06 | 47089 | 95319
3 | 21:10.70 | 4:43.45 | 95320 | 116589
4 | 25:54.40 | 4:40.35 | 116590 | 137624
5 | 30:35.00 | 3:27.40 | 137625 | 153189
6 | 34:02.40 | 6:35.20 | 153190 | 182834
7 | 40:37.60 | 2:22.17 | 182835 | 193501
8 | 43:00.02 | 7:59.40 | 193502 | 229466
9 | 50:59.42 | 3:31.08 | 229467 | 245299
10 | 54:30.50 | 6:37.12 | 245300 | 275086
11 | 61:07.62 | 10:15.30 | 275087 | 321241


Range status and errors

Selected range

Filename C:Various Artists (1996) - The Songlines AnthologyVarious Artists (1996) - The Songlines Anthology.wav

Peak level 100.0 %
Extraction speed 4.6 X
Range quality 100.0 %
Test CRC 6AB34E8F
Copy CRC 6AB34E8F
Copy OK

No errors occurred


AccurateRip summary

Track 1 accurately ripped (confidence 1) [97B84E8D] (AR v2)
Track 2 accurately ripped (confidence 1) [A1E42276] (AR v2)
Track 3 accurately ripped (confidence 1) [F6FBE714] (AR v2)
Track 4 accurately ripped (confidence 1) [1DAC0F54] (AR v2)
Track 5 accurately ripped (confidence 1) [66AF0081] (AR v2)
Track 6 accurately ripped (confidence 1) [875EA5C7] (AR v2)
Track 7 accurately ripped (confidence 1) [76410998] (AR v2)
Track 8 accurately ripped (confidence 1) [403FDA95] (AR v2)
Track 9 accurately ripped (confidence 1) [02A36543] (AR v2)
Track 10 accurately ripped (confidence 1) [0C948C19] (AR v2)
Track 11 accurately ripped (confidence 1) [04D62D78] (AR v2)

All tracks accurately ripped

End of status report

==== Log checksum 9E77923796BC5CB8776C36C176C44C995D9EB6B60A7CD0328BA6DDDF2C481CE0 ====

foobar2000 1.2 / Dynamic Range Meter 1.1.1
log date: 2016-12-12 16:04:19

––––––––––––––––––––––––––––––––––––––––
Analyzed: Babkas / The Songlines Anthology (1)
Ben Monder Trio / The Songlines Anthology (2)
Dave Douglas' Tiny Bell Trio / The Songlines Anthology (3)
––––––––––––––––––––––––––––––––––––––––

DR Peak RMS Duration Track
––––––––––––––––––––––––––––––––––––––––
DR18 0.00 dB -21.89 dB 10:28 01-This
DR13 0.00 dB -16.10 dB 3:28 05-Lactophobia
DR14 -2.91 dB -22.26 dB 10:15 11-Head-on Kouvlodsko
––––––––––––––––––––––––––––––––––––––––

Number of tracks: 3
Official DR value: DR15

Samplerate: 44100 Hz
Channels: 2
Bits per sample: 16
Bitrate: 553 kbps
Codec: FLAC
================================================================================

––––––––––––––––––––––––––––––––––––––––
Statistics for: 08-Untiltled One
Number of samples: 21147420
Duration: 8:00
––––––––––––––––––––––––––––––––––––––––

Left Right

Peak Value: -1.80 dB –- -1.80 dB
Avg RMS: -25.18 dB –- -25.11 dB
DR channel: 18.89 dB –- 18.87 dB
––––––––––––––––––––––––––––––––––––––––

Official DR Value: DR19

Samplerate: 44100 Hz
Channels: 2
Bits per sample: 16
Bitrate: 553 kbps
Codec: FLAC
================================================================================
––––––––––––––––––––––––––––––––––––––––
Analyzed: Francois Houle & Andreas Kahre / The Songlines Anthology (1)
Human Feel / The Songlines Anthology (2)
Matt Rogalsky / The Songlines Anthology (3)
––––––––––––––––––––––––––––––––––––––––

DR Peak RMS Duration Track
––––––––––––––––––––––––––––––––––––––––
DR17 -4.00 dB -27.01 dB 4:44 03-Meandre
DR14 -2.87 dB -22.60 dB 4:40 04-Tic, Tics
DR14 -7.99 dB -31.21 dB 3:31 09-Song (without words)
––––––––––––––––––––––––––––––––––––––––

Number of tracks: 3
Official DR value: DR15

Samplerate: 44100 Hz
Channels: 2
Bits per sample: 16
Bitrate: 553 kbps
Codec: FLAC
================================================================================

––––––––––––––––––––––––––––––––––––––––
Analyzed: Patrick Zimmerli Ensemble / The Songlines Anthology (1)
Paul Plimley / The Songlines Anthology (2)
––––––––––––––––––––––––––––––––––––––––

DR Peak RMS Duration Track
––––––––––––––––––––––––––––––––––––––––
DR17 -4.19 dB -27.19 dB 10:43 02-Where Have I
DR14 -7.64 dB -28.51 dB 6:37 10-Persistence of the Dragon
––––––––––––––––––––––––––––––––––––––––

Number of tracks: 2
Official DR value: DR15

Samplerate: 44100 Hz
Channels: 2
Bits per sample: 16
Bitrate: 553 kbps
Codec: FLAC
================================================================================

––––––––––––––––––––––––––––––––––––––––
Statistics for: 07-Houle
Number of samples: 6272196
Duration: 2:22
––––––––––––––––––––––––––––––––––––––––

Left Right

Peak Value: -3.18 dB –- -1.80 dB
Avg RMS: -30.51 dB –- -28.50 dB
DR channel: 21.38 dB –- 21.98 dB
––––––––––––––––––––––––––––––––––––––––

Official DR Value: DR22

Samplerate: 44100 Hz
Channels: 2
Bits per sample: 16
Bitrate: 553 kbps
Codec: FLAC
================================================================================
foobar2000 1.2 / Dynamic Range Meter 1.1.1
log date: 2016-12-12 16:04:11

––––––––––––––––––––––––––––––––––––––––
Statistics for: 06-Polyogue
Number of samples: 17431260
Duration: 6:35
––––––––––––––––––––––––––––––––––––––––

Left Right

Peak Value: -4.98 dB –- -1.47 dB
Avg RMS: -24.68 dB –- -23.85 dB
DR channel: 14.95 dB –- 18.26 dB
––––––––––––––––––––––––––––––––––––––––

Official DR Value: DR17

Samplerate: 44100 Hz
Channels: 2
Bits per sample: 16
Bitrate: 553 kbps
Codec: FLAC
================================================================================


All thanks to original releaser - gssmg7