Nashville Cast - The Music Of Nashville: Original Soundtrack (Season 4, Volume 2) (2016)


Nashville Cast - The Music Of Nashville: Original Soundtrack (Season 4, Volume 2) (2016)
EAC Rip | FLAC (Tracks) +cue, log, artworks - 543 MB | 00:57:18
Soundtrack, Country | Label: Big Machine Records | Release Year: 2016

The Nashville Cast is just that, a loose configuration of actors, singers, and musicians who are part of the cast of the ABC television series Nashville, which had its debut on October 10, 2012. The series chronicles the lives of various fictional movers and shakers swept up in Nashville's music industry, and the songs they sing, write, sell, and share are a big part of the show's appeal.

TRACKLIST

01. Can't Say No To Love (feat. Will Chase)
02. Soul Survivor (feat. Jonathan Jackson)
03. Only Tennessee (feat. Clare Bowen)
04. Kinda Dig The Feeling (feat. Jonathan Jackson)
05. Swept Away (feat. Jessy Schram)
06. Moving On Never Felt So Good (feat. Chris Carmack)
07. From Here On Out (feat. Charles Esten)
08. The Rubble (feat. Clare Bowen)
09. Hole In The World (feat. Hayden Panettiere)
10. 'Til The Stars Come Out Again (feat. Maisy Stella)
11. Caged Bird (feat. Aubrey Peeples)
12. One Place Too Long (feat. Hayden Panettiere)
13. Ain't It Beautiful (feat. Chris Carmack)
14. Wild Card (feat. Lennon Stella)
15. Boomtown (feat. Hayden Panettiere)
16. All We Ever Wanted (feat. Lennon & Maisy)
17. Hold On To Me (feat. Connie Britton)

Exact Audio Copy V1.3 from 2. September 2016

EAC extraction logfile from 28. September 2016, 21:24

Various / The Music Of Nashville Season 4 (Volume 2)

Used drive : SlimtypeDVD A DU8A5SH Adapter: 1 ID: 0

Read mode : Secure
Utilize accurate stream : Yes
Defeat audio cache : Yes
Make use of C2 pointers : No

Read offset correction : 6
Overread into Lead-In and Lead-Out : No
Fill up missing offset samples with silence : Yes
Delete leading and trailing silent blocks : No
Null samples used in CRC calculations : Yes
Used interface : Native Win32 interface for Win NT & 2000

Used output format : User Defined Encoder
Selected bitrate : 1024 kBit/s
Quality : High
Add ID3 tag : No
Command line compressor : C:Program Files (x86)Exact Audio CopyFlacflac.exe
Additional command line options : -T "COMMENT=by k0ste for rutracker.org" -V -8 -T "Date=%year%" -T "Genre=%genre%" %source%


TOC of the extracted CD

Track | Start | Length | Start sector | End sector
––––––––––––––––––––––––––––-
1 | 0:00.00 | 3:19.24 | 0 | 14948
2 | 3:19.24 | 3:51.37 | 14949 | 32310
3 | 7:10.61 | 3:15.35 | 32311 | 46970
4 | 10:26.21 | 2:36.51 | 46971 | 58721
5 | 13:02.72 | 3:42.01 | 58722 | 75372
6 | 16:44.73 | 3:50.16 | 75373 | 92638
7 | 20:35.14 | 4:07.33 | 92639 | 111196
8 | 24:42.47 | 2:54.26 | 111197 | 124272
9 | 27:36.73 | 3:31.48 | 124273 | 140145
10 | 31:08.46 | 2:30.30 | 140146 | 151425
11 | 33:39.01 | 3:50.14 | 151426 | 168689
12 | 37:29.15 | 3:02.15 | 168690 | 182354
13 | 40:31.30 | 3:34.47 | 182355 | 198451
14 | 44:06.02 | 3:16.55 | 198452 | 213206
15 | 47:22.57 | 3:46.31 | 213207 | 230187
16 | 51:09.13 | 2:46.54 | 230188 | 242691
17 | 53:55.67 | 3:45.15 | 242692 | 259581


Range status and errors

Selected range

Filename Z:mntnasPIZDAVarious - The Music Of Nashville Season 4 (Volume 2).wav

Peak level 94.4 %
Extraction speed 1.9 X
Range quality 99.9 %
Test CRC A6F40241
Copy CRC A6F40241
Copy OK

No errors occurred


AccurateRip summary

Track 1 accurately ripped (confidence 2) [1A85F469] (AR v2)
Track 2 accurately ripped (confidence 2) [2170727A] (AR v2)
Track 3 accurately ripped (confidence 2) [39FB8D86] (AR v2)
Track 4 accurately ripped (confidence 2) [6BF1D5BD] (AR v2)
Track 5 accurately ripped (confidence 2) [CF9F7622] (AR v2)
Track 6 accurately ripped (confidence 2) [93E61135] (AR v2)
Track 7 accurately ripped (confidence 2) [CA61DBE3] (AR v2)
Track 8 accurately ripped (confidence 2) [405D6046] (AR v2)
Track 9 accurately ripped (confidence 2) [045E584A] (AR v2)
Track 10 accurately ripped (confidence 2) [9BDE72E2] (AR v2)
Track 11 accurately ripped (confidence 2) [060F2FEA] (AR v2)
Track 12 accurately ripped (confidence 2) [A07C67DC] (AR v2)
Track 13 accurately ripped (confidence 2) [677C73FF] (AR v2)
Track 14 accurately ripped (confidence 2) [7F583BA0] (AR v2)
Track 15 accurately ripped (confidence 2) [9F98B82C] (AR v2)
Track 16 accurately ripped (confidence 2) [0A6FA57B] (AR v2)
Track 17 accurately ripped (confidence 2) [7A600D66] (AR v2)

All tracks accurately ripped

End of status report

==== Log checksum E6C8E261186BD1FB119F06CC1D9B136F233A1A71A9E868C4708A10F5521671AA ====


All thanks go to the original releaser
or