Francis Lickerish - Far and Forgot - From The Lost Lands (2012)


Francis Lickerish - Far and Forgot - From The Lost Lands (2012)
EAC Rip | FLAC (image+.cue+log) - 409 MB | MP3 CBR 320 kbps (LAME 3.93) - 160 MB | Covers - 88 MB
Genre: Symphonic Progressive Rock | RAR 3% Rec. | Label: Self-released (SG001)

Francis Lickerish is what anybody will call a renaissance man, after his successful experience as composer, guitar and lute player in the cult band The Enid, changes the stage for the university graduating as therapist pursuing a successful career as counselor, group therapist, workshop leader and trainer, working with a very broad client base that includes street drinkers, criminals, film stars and royalty. But the music always remains in him using it as part of his therapy, and in 2009 surprises the Prog commute when as a member of Secret Green releases the amazing "To Wake the King", clearly oriented towards Prog Folk. When everybody expected more albums from this band Francis Lickerish releases his first solo album called "Far And Forgot - From The Lost Lands" which was supposed to be a sequel of To Wake The King, but instead he combines a lifetime experience clearly oriented towards Symphonic Prog and Neo Classical with an evident influence from The Enid.

Tracklist:
01. Brides Of The Wind
02. The Shining Hour (For Helen)
03. The Man Who Sold Magic
04. Seeds Of The Sun (A Lament For The Hedgerows)
05. The Disenchanting
I. Willow Hill
II. Lyonesse
III. Berceuse (The Rain Curtain)
IV. Broceliande
V. The Faeries Funeral

Total time: 01:08:08

Exact Audio Copy V1.0 beta 3 from 29. August 2011

EAC extraction logfile from 14. February 2013, 9:43

Francis Lickerish / Far and Forgot - From The Lost Lands

Used drive : ASUS DRW-1608P3S Adapter: 1 ID: 1

Read mode : Secure
Utilize accurate stream : Yes
Defeat audio cache : Yes
Make use of C2 pointers : No

Read offset correction : 48
Overread into Lead-In and Lead-Out : Yes
Fill up missing offset samples with silence : Yes
Delete leading and trailing silent blocks : No
Null samples used in CRC calculations : Yes
Used interface : Installed external ASPI interface

Used output format : Internal WAV Routines
Sample format : 44.100 Hz; 16 Bit; Stereo


TOC of the extracted CD

Track | Start | Length | Start sector | End sector
––––––––––––––––––––––––––––-
1 | 0:00.00 | 14:17.39 | 0 | 64313
2 | 14:17.39 | 6:18.05 | 64314 | 92668
3 | 20:35.44 | 10:08.02 | 92669 | 138270
4 | 30:43.46 | 7:38.74 | 138271 | 172694
5 | 38:22.45 | 29:45.30 | 172695 | 306599


Range status and errors

Selected range

Filename E:bzp01Francis Lickerish - Far and Forgot - From The Lost LandsFrancis Lickerish - Far and Forgot - From The Lost Lands.wav

Peak level 99.5 %
Extraction speed 7.1 X
Range quality 100.0 %
Test CRC F4619891
Copy CRC F4619891
Copy OK

No errors occurred


AccurateRip summary

Track 1 not present in database
Track 2 not present in database
Track 3 not present in database
Track 4 not present in database
Track 5 not present in database

None of the tracks are present in the AccurateRip database

End of status report

==== Log checksum 6EEBB27F7B26913EC6B8E6F1B31ADBE6F5D988A8028D4819B8D09DE8FBEC3C35 ====

[CUETools log; Date: 16.12.2016 2:31:54; Version: 2.1.4]
[CTDB TOCID: 1OA.vzLjhBltfd8qlQvQqgn2uog-] found.
Track | CTDB Status
1 | (3/3) Accurately ripped
2 | (3/3) Accurately ripped
3 | (3/3) Accurately ripped
4 | (3/3) Accurately ripped
5 | (3/3) Accurately ripped
[AccurateRip ID: 000bd195-0037e3cb-400ff805] found.
Track [ CRC | V2 ] Status
01 [efb164f4|9de88383] (0+4/4) Accurately ripped
02 [ab080da6|8b36a8f7] (0+4/4) Accurately ripped
03 [fc8267a1|45ca57ae] (0+4/4) Accurately ripped
04 [284e6b73|a39b4b6b] (0+4/4) Accurately ripped
05 [0de59514|663cc421] (0+4/4) Accurately ripped

Track Peak [ CRC32 ] [W/O NULL] [ LOG ]
– 99,5 [F4619891] [F083460B] CRC32
01 99,5 [CFDD9B79] [34B483EA]
02 99,5 [993F751D] [07003ABE]
03 99,5 [EDF0D757] [0E0F4467]
04 99,5 [6E34E8DC] [CC481DF5]
05 99,5 [50A7FDE7] [1A92A3E8]

Thanks to bzp01

LOSSLESS:

_______________

MP3 320 kbps:

_______________

Covers: