Finnforest - Finnforest & Lähtö Matkalle (1975-76) [Reissue 1996]


Finnforest - Finnforest & Lähtö Matkalle (1975-76) [Reissue 1996]
EAC Rip | APE (image+.cue+log) - 421 MB | MP3 CBR 320 kbps (LAME 3.93) - 173 MB | Covers - 18 MB
Genre: Instrumental Progressive Rock | RAR 3% Rec. | Label: The Laser's Edge (LE 1025)

Finnforest were formed in the mid-70's by Finnish brothers Pekka (guitar, bass) and Jussi Tegelman (drums) with synthesizer and keyboard player Jukka Rissanen. Mostly influenced by the Mahavishnu Orchestra, their style also evokes early Camel, Finch and Caravan. Their music is characterized by energetic and spirited guitar/organ interplay, interesting compositions and very good vintage 70's jamming overall. Their eponymous album, released in 1975, is perhaps their most Mahavishnu influenced, with Rissanen sticking largely to his Hammond organ and using his synths sparingly, to mostly good effect. "Latho Matkalle" (1976), considered their best effort, boasts the contribution of two extra keyboard players, an additional bassist and a string quartet. You'll sense both a Mahavishnu and Weather Report influence on this one, which contains some mighty fine guitar work as well as some very good compositions.

Tracklist:

Finnforest (1975):
01. Mikä Yö (What a Night)
02. Sanaton Laulu (Song Without Words)
03. Happea (Oxygen)
04. Koin Siipesi (I Felt Your Wings)
05. Paikalliset Tuulet (The Local Winds)
06. Aallon Vaihto (The Change of the Wave)
07. Kunnes (Till)
08. P.S.

Lähtö Matkalle (1976):
09. Alpha
10. Elvin
11. Don
12. Lähtö Matkalle 1 (Starting a Voyage - Part 1)
13. Lähtö Matkalle 2 (Starting a Voyage - Part 2)

Total time: 01:13:28

Exact Audio Copy V0.99 prebeta 4 from 23. January 2008

EAC extraction logfile from 14. September 2009, 20:12

Finnforest / Finnforest-Lдhtц Matkalle

Used drive : HL-DT-STRW/DVD GCC-4242N Adapter: 1 ID: 0

Read mode : Secure
Utilize accurate stream : Yes
Defeat audio cache : Yes
Make use of C2 pointers : No

Read offset correction : 102
Overread into Lead-In and Lead-Out : No
Fill up missing offset samples with silence : Yes
Delete leading and trailing silent blocks : No
Null samples used in CRC calculations : Yes
Used interface : Native Win32 interface for Win NT & 2000

Used output format : Internal WAV Routines
Sample format : 44.100 Hz; 16 Bit; Stereo


TOC of the extracted CD

Track | Start | Length | Start sector | End sector
––––––––––––––––––––––––––––-
1 | 0:00.00 | 5:26.60 | 0 | 24509
2 | 5:26.60 | 3:52.00 | 24510 | 41909
3 | 9:18.60 | 4:42.72 | 41910 | 63131
4 | 14:01.57 | 2:53.63 | 63132 | 76169
5 | 16:55.45 | 4:21.50 | 76170 | 95794
6 | 21:17.20 | 4:59.32 | 95795 | 118251
7 | 26:16.52 | 4:38.38 | 118252 | 139139
8 | 30:55.15 | 1:45.12 | 139140 | 147026
9 | 32:40.27 | 8:15.38 | 147027 | 184189
10 | 40:55.65 | 8:36.15 | 184190 | 222904
11 | 49:32.05 | 4:26.37 | 222905 | 242891
12 | 53:58.42 | 8:44.20 | 242892 | 282211
13 | 62:42.62 | 10:44.65 | 282212 | 330576


Range status and errors

Selected range

Filename C:_EAC_OutOutFinnforest - Finnforest-Lдhtц MatkalleFinnforest - Finnforest-Lдhtц Matkalle.wav

Peak level 97.8 %
Range quality 100.0 %
Copy CRC 93C6F95F
Copy OK

No errors occurred


AccurateRip summary

Track 1 accurately ripped (confidence 3) [1444391A]
Track 2 accurately ripped (confidence 4) [93F7BBCD]
Track 3 accurately ripped (confidence 3) [D1833B7B]
Track 4 accurately ripped (confidence 3) [ACFED8A1]
Track 5 accurately ripped (confidence 4) [385E32DA]
Track 6 accurately ripped (confidence 3) [FF308B20]
Track 7 accurately ripped (confidence 4) [55F203A4]
Track 8 accurately ripped (confidence 4) [C74E963A]
Track 9 accurately ripped (confidence 4) [CFD51057]
Track 10 accurately ripped (confidence 3) [AB5A68BE]
Track 11 accurately ripped (confidence 3) [B6F6614F]
Track 12 accurately ripped (confidence 4) [4AC44BBA]
Track 13 accurately ripped (confidence 3) [1471E9CE]

All tracks accurately ripped

End of status report

[CUETools log; Date: 15.12.2016 22:06:33; Version: 2.1.4]
[CTDB TOCID: 9.4OJ9fclMGcpHxd9wVGVLfCz3g-] found.
Track | CTDB Status
1 | (2/2) Accurately ripped
2 | (2/2) Accurately ripped
3 | (2/2) Accurately ripped
4 | (2/2) Accurately ripped
5 | (2/2) Accurately ripped
6 | (2/2) Accurately ripped
7 | (2/2) Accurately ripped
8 | (2/2) Accurately ripped
9 | (2/2) Accurately ripped
10 | (2/2) Accurately ripped
11 | (2/2) Accurately ripped
12 | (2/2) Accurately ripped
13 | (2/2) Accurately ripped
[AccurateRip ID: 001e0a48-01338063-c611370d] found.
Track [ CRC | V2 ] Status
01 [1444391a|1e96b145] (4+3/7) Accurately ripped
02 [93f7bbcd|4146a489] (5+3/8) Accurately ripped
03 [d1833b7b|bf1ebd8f] (4+3/7) Accurately ripped
04 [acfed8a1|ebe77cc5] (4+3/7) Accurately ripped
05 [385e32da|3a4fa3c5] (5+3/8) Accurately ripped
06 [ff308b20|ba65108e] (4+3/7) Accurately ripped
07 [55f203a4|f8175e8c] (5+3/8) Accurately ripped
08 [c74e963a|115d9a23] (5+3/8) Accurately ripped
09 [cfd51057|70b5f68b] (5+3/8) Accurately ripped
10 [ab5a68be|d3e810e8] (4+3/7) Accurately ripped
11 [b6f6614f|094a2a3a] (4+3/7) Accurately ripped
12 [4ac44bba|f405f75d] (5+3/8) Accurately ripped
13 [1471e9ce|5d6cfcab] (4+3/7) Accurately ripped

Track Peak [ CRC32 ] [W/O NULL] [ LOG ]
– 97,8 [93C6F95F] [C8B2F34B] CRC32
01 77,0 [4005D92A] [9B8F3237]
02 66,6 [53DFDC37] [8D71C6C2]
03 97,8 [CB15F08D] [C7563C2E]
04 61,5 [71D71A45] [4FD688A5]
05 76,5 [5A275D2B] [A141A1F6]
06 71,4 [8C5C1B54] [E013357D]
07 67,4 [9DFA3AB6] [1260E0DC]
08 79,3 [86612C28] [EFB8A45D]
09 80,1 [28A099C2] [03864009]
10 94,5 [686A23AE] [F3583C8F]
11 94,5 [4579127D] [8A7B45F6]
12 88,8 [513FDD4A] [9355AD31]
13 71,8 [DB6ABC8D] [C6BF2C1F]

Thanks to barin99

LOSSLESS:

_______________

MP3 320 kbps:

_______________

Covers: