Âõîä â ñâîé àêêàóíò

Èëè âîéäèòå ÷åðåç ñîö. ñåòè

Moloko - All Back To The Mine: A Collection Of Remixes 1995-2000 [2CD] (2001)


Moloko - All Back To The Mine: A Collection Of Remixes 1995-2000 [2CD] (2001)
Electronic, House, Dub | EAC Rip | FLAC, Img+CUE+LOG+Full Scans (PNG) | 02:10:47 h. | 975,43 Mb
Label: The Echo Label Ltd. / Roadrunner Arcade Music (EU) | Released: 2001-07-02

Most remix albums smack of weak marketing. Less about the music itself, they're often more concerned with fulfilling contractual obligations. Sadly "All Back To The Mine" is not an exception to the rule and represents an unnecessary pillage through Moloko's patchy back catalogue. Culled from five years' worth of archive, what you actually get are 21 mixes (10 of which have never appeared on any commercial UK format) of varying quality and style. Not all of them are worthless: there's a great, rubberised funk version of early single "Day For Night" replete with the kind of walking bassline and vocodered vocals that sounds amazingly contemporary; Swag's twitchy electro mix of "The Flipside" is cute and the glossy strings and bottom-end rumble of "Knee Deepen" work just fine. However, there's too much here that's simply dated, hollow or plain uninspiring. Of the three versions of "Time is Now", none tops the original's acoustic punch and nobody (unsurprisingly) makes a silk purse from the sow's ear that is "Indigo". Not a disaster but one for die-hard fans only.
~Paul Tierney~




Release of this CD Set: 2001, July, 2 [CD The Echo Label Ltd. / Roadrunner Arcade Music (EU), Cat.# 22 202442 / UPC: 8714221006896]
All tracks ℗ & © 2001 The Echo Label Ltd.
The Echo Label Ltd. is part of the Chrysalis Group PLC.
Issued under License from The Echo Label Ltd. to The All Blacks B.V.
Made in Netherlands

Credits:
Art Direction – Lizzie Finn
Illustration – Marcus James
Producer – Moloko
Written-By – Mark Brydon, Roisin Murphy


Tracklist:

Disc 1

01. The Time Is Now (DJ Plankton Mix) (10:32)
02. The Flipside (Herbert's Surround Sound Mix) (06:42)
03. Pure Pleasure Seeker (Todd Edwards Pleasure For Life UK Vocal)(07:00)
04. Dominoid (Panty Sniffer Mix) (07:16)
05. Sing It Back (Mousse T's Feel Love Mix) (06:05)
06. Indigo (Robbie Rivera's Dark Mix) (07:34)
07. Pure Pleasure Seeker (Oscar G's Cuba Libre Dub) (05:35)
08. The Flipside (Swag's Mocoder Dub) (05:13)
09. Knee Deepen (Salt City Orchestra Edit) (04:52)
10. Sing It Back (Can 7 1930's Mix) (02:20)

Disc 2

01. The Time Is Now (Bambino Casino Mix) (07:09)
02. Lotus Eaters (Ashley Beedle's Funk In Your Neighbourhood Mix) (04:49)
03. Party Weirdo (Wackdown Mix) (06:16)
04. Fun For Me (Plankton's Pondlife Mix) (06:02)
05. Indigo (All Seeing I Glamoloko Edit) (04:29)
06. Lotus Eaters (Luke Vibert's Plug Mix) (06:44)
07. The Flipside (DJ Krust Dub) (03:02)
08. Where Is The What (Wonderbook Mix) (06:21)
09. Pure Pleasure Seeker (Pizzicato Mix) (07:07)
10. Day For Night (Quarter Master Mix) (05:10)
11. The Time Is Now (FK's Blissed Out Dub) (10:29)

Note: track 11 on Disc 2 does not appear in the tracklist on the back cover.

Exact Audio Copy V1.3 from 2. September 2016

EAC extraction logfile from 8. December 2016, 23:04

Moloko / All Back To The Mine (Disc One)

Used drive : PLEXTOR DVDR PX-810SA Adapter: 1 ID: 0

Read mode : Secure
Utilize accurate stream : Yes
Defeat audio cache : Yes
Make use of C2 pointers : No

Read offset correction : 48
Overread into Lead-In and Lead-Out : No
Fill up missing offset samples with silence : Yes
Delete leading and trailing silent blocks : No
Null samples used in CRC calculations : Yes
Used interface : Installed external ASPI interface

Used output format : User Defined Encoder
Selected bitrate : 1024 kBit/s
Quality : High
Add ID3 tag : No
Command line compressor : C:Program Files (x86)Exact Audio CopyFlacflac.exe
Additional command line options : -8 -V -T "Date=%year%" -T "Genre=%genre%" -T "COMMENT=ripped by bvstudio®" %source%


TOC of the extracted CD

Track | Start | Length | Start sector | End sector
––––––––––––––––––––––––––––-
1 | 0:00.00 | 10:32.17 | 0 | 47416
2 | 10:32.17 | 6:41.73 | 47417 | 77564
3 | 17:14.15 | 7:00.12 | 77565 | 109076
4 | 24:14.27 | 7:16.00 | 109077 | 141776
5 | 31:30.27 | 6:04.38 | 141777 | 169114
6 | 37:34.65 | 7:34.00 | 169115 | 203164
7 | 45:08.65 | 5:34.60 | 203165 | 228274
8 | 50:43.50 | 5:13.27 | 228275 | 251776
9 | 55:57.02 | 4:51.65 | 251777 | 273666
10 | 60:48.67 | 2:19.68 | 273667 | 284159


Range status and errors

Selected range

Filename F:Moloko, Róisín MurphyMoloko2001 - All Back To The Mine (2001 - The Echo Label Ltd. • Roadrunner Arcade Music - Germany - 22 202442)Disc OneMoloko - All Back To The Mine (Disc One).wav

Peak level 99.9 %
Extraction speed 7.2 X
Range quality 99.9 %
Test CRC FF28EAF7
Copy CRC FF28EAF7
Copy OK

No errors occurred


AccurateRip summary

Track 1 accurately ripped (confidence 19) [5DA60052] (AR v2)
Track 2 accurately ripped (confidence 20) [1FA2C32C] (AR v2)
Track 3 accurately ripped (confidence 19) [3D7E348F] (AR v2)
Track 4 accurately ripped (confidence 19) [4EFD8081] (AR v2)
Track 5 accurately ripped (confidence 19) [1F60AAEB] (AR v2)
Track 6 accurately ripped (confidence 20) [428D4F6D] (AR v2)
Track 7 accurately ripped (confidence 20) [43A28181] (AR v2)
Track 8 accurately ripped (confidence 20) [B19E7F2F] (AR v2)
Track 9 accurately ripped (confidence 19) [C83FEA2D] (AR v2)
Track 10 accurately ripped (confidence 20) [A21CA77F] (AR v2)

All tracks accurately ripped

End of status report

–– CUETools DB Plugin V2.1.6

[CTDB TOCID: 4vKMtoTS7B6f6q7oJLHa_z1bsFw-] found
Submit result: 4vKMtoTS7B6f6q7oJLHa_z1bsFw- has been confirmed
Track | CTDB Status
1 | (49/50) Accurately ripped
2 | (49/50) Accurately ripped
3 | (49/50) Accurately ripped
4 | (49/50) Accurately ripped
5 | (49/50) Accurately ripped
6 | (46/50) Accurately ripped
7 | (47/50) Accurately ripped, or (1/50) differs in 1843 samples @02:57:11-02:57:12,02:57:64-02:57:65,02:58:24-02:58:25,02:58:41-02:58:42,02:58:59-02:58:60,02:59:01-02:59:02,02:59:19-02:59:20,02:59:36-02:59:37,02:59:54-02:59:55,02:59:71-02:59:72,03:01:26-03:01:27,03:01:44-03:01:45
8 | (49/50) Accurately ripped
9 | (46/50) Accurately ripped
10 | (48/50) Accurately ripped


==== Log checksum 01C37381148B3122A60EBC3B67210122E507854F613C22203D02E6D07E4975CE ====

––––––––––––––––––––––––––––––––––––––––
Analyzed: Moloko / All Back To The Mine (Disc One)
––––––––––––––––––––––––––––––––––––––––

DR Peak RMS Duration Track
––––––––––––––––––––––––––––––––––––––––
DR7 -0.43 dB -9.31 dB 10:32 01-The Time Is Now (DJ Plankton Mix)
DR10 -0.01 dB -10.83 dB 6:42 02-The Flipside (Herbert's Surround Sound Mix)
DR8 -0.01 dB -9.21 dB 7:00 03-Pure Pleasure Seeker (Todd Edwards Pleasure For Life UK Vocal)
DR7 -0.14 dB -9.04 dB 7:16 04-Dominoid (Panty Sniffer Mix)
DR8 -0.01 dB -9.04 dB 6:05 05-Sing It Back (Mousse T's Feel Love Mix)
DR8 -0.01 dB -9.57 dB 7:34 06-Indigo (Robbie Rivera's Dark Mix)
DR9 -0.01 dB -11.05 dB 5:35 07-Pure Pleasure Seeker (Oscar G's Cuba Libre Dub)
DR9 -0.01 dB -10.74 dB 5:13 08-The Flipside (Swag's Mocoder Dub)
DR7 -0.10 dB -8.74 dB 4:52 09-Knee Deepen (Salt City Orchestra Edit)
DR13 -0.06 dB -14.47 dB 2:20 10-Sing It Back (Can 7 1930's Mix)
––––––––––––––––––––––––––––––––––––––––

Number of tracks: 10
Official DR value: DR9

Samplerate: 44100 Hz
Channels: 2
Bits per sample: 16
Bitrate: 856 kbps
Codec: FLAC
================================================================================

Exact Audio Copy V1.3 from 2. September 2016

EAC extraction logfile from 8. December 2016, 23:28

Moloko / All Back To The Mine (Disc Two)

Used drive : PLEXTOR DVDR PX-810SA Adapter: 1 ID: 0

Read mode : Secure
Utilize accurate stream : Yes
Defeat audio cache : Yes
Make use of C2 pointers : No

Read offset correction : 48
Overread into Lead-In and Lead-Out : No
Fill up missing offset samples with silence : Yes
Delete leading and trailing silent blocks : No
Null samples used in CRC calculations : Yes
Used interface : Installed external ASPI interface

Used output format : User Defined Encoder
Selected bitrate : 1024 kBit/s
Quality : High
Add ID3 tag : No
Command line compressor : C:Program Files (x86)Exact Audio CopyFlacflac.exe
Additional command line options : -8 -V -T "Date=%year%" -T "Genre=%genre%" -T "COMMENT=ripped by bvstudio®" %source%


TOC of the extracted CD

Track | Start | Length | Start sector | End sector
––––––––––––––––––––––––––––-
1 | 0:00.00 | 7:08.60 | 0 | 32159
2 | 7:08.60 | 4:48.72 | 32160 | 53831
3 | 11:57.57 | 6:15.43 | 53832 | 81999
4 | 18:13.25 | 6:01.67 | 82000 | 109141
5 | 24:15.17 | 4:29.33 | 109142 | 129349
6 | 28:44.50 | 6:43.50 | 129350 | 159624
7 | 35:28.25 | 3:02.25 | 159625 | 173299
8 | 38:30.50 | 6:21.20 | 173300 | 201894
9 | 44:51.70 | 7:06.52 | 201895 | 233896
10 | 51:58.47 | 5:10.10 | 233897 | 257156
11 | 57:08.57 | 10:29.13 | 257157 | 304344


Range status and errors

Selected range

Filename F:Moloko, Róisín MurphyMoloko2001 - All Back To The Mine (2001 - The Echo Label Ltd. • Roadrunner Arcade Music - Germany - 22 202442)Disc TwoMoloko - All Back To The Mine (Disc Two).wav

Peak level 99.9 %
Extraction speed 7.4 X
Range quality 100.0 %
Test CRC 33628E87
Copy CRC 33628E87
Copy OK

No errors occurred


AccurateRip summary

Track 1 accurately ripped (confidence 11) [AC1EB672] (AR v2)
Track 2 accurately ripped (confidence 11) [F9D18A89] (AR v2)
Track 3 accurately ripped (confidence 11) [FC6A56F2] (AR v2)
Track 4 accurately ripped (confidence 11) [083C9D61] (AR v2)
Track 5 accurately ripped (confidence 11) [7B517BF3] (AR v2)
Track 6 accurately ripped (confidence 11) [010FC80A] (AR v2)
Track 7 accurately ripped (confidence 11) [AC6ABC51] (AR v2)
Track 8 accurately ripped (confidence 10) [4A1143EC] (AR v2)
Track 9 accurately ripped (confidence 11) [2C32CCCE] (AR v2)
Track 10 accurately ripped (confidence 11) [B2F654AC] (AR v2)
Track 11 accurately ripped (confidence 10) [D3C54393] (AR v2)

All tracks accurately ripped

End of status report

–– CUETools DB Plugin V2.1.6

[CTDB TOCID: LuvA1jiPUCGHTcGeHFCNli9WE5g-] found
Submit result: LuvA1jiPUCGHTcGeHFCNli9WE5g- has been confirmed
Track | CTDB Status
1 | (41/42) Accurately ripped
2 | (41/42) Accurately ripped
3 | (40/42) Accurately ripped
4 | (41/42) Accurately ripped
5 | (40/42) Accurately ripped
6 | (40/42) Accurately ripped
7 | (40/42) Accurately ripped
8 | (39/42) Accurately ripped
9 | (40/42) Accurately ripped
10 | (40/42) Accurately ripped
11 | (39/42) Accurately ripped, or (1/42) differs in 1738 samples @07:07:33-07:07:34,07:08:17,07:08:36,07:09:00,07:09:39,07:09:58-07:09:59,07:10:03,07:10:22-07:10:23,07:10:42,07:10:61-07:10:62,07:58:00,07:58:20,08:00:66,08:01:10-08:01:11,08:08:35,08:08:54-08:08:55,08:08:74-08:09:00,08:09:18-08:09:19,08:09:38-08:09:39,08:09:58,08:10:02-08:10:03,08:10:22-08:10:23,08:10:42,08:10:61-08:10:62,08:11:06-08:11:07,08:11:25-08:11:26,08:11:65,08:12:29-08:12:30,08:12:49,08:13:13-08:13:14,08:13:32-08:13:33,08:13:72,10:19:28


==== Log checksum B774F6E7438EB4051F51433B7A6385EFAE55F546256D8D0CBCA57EF76C434126 ====

foobar2000 1.3.14 beta 1 / Dynamic Range Meter 1.1.1
log date: 2016-12-09 13:39:26

––––––––––––––––––––––––––––––––––––––––
Analyzed: Moloko / All Back To The Mine (Disc Two)
––––––––––––––––––––––––––––––––––––––––

DR Peak RMS Duration Track
––––––––––––––––––––––––––––––––––––––––
DR10 -0.43 dB -12.14 dB 7:09 01-The Time Is Now (Bambino Casino Mix)
DR9 -0.01 dB -9.90 dB 4:49 02-Lotus Eaters (Ashley Beedle's Funk In Your Neighbourhood Mix)
DR11 -0.01 dB -12.83 dB 6:16 03-Party Weirdo (Wackdown Mix)
DR11 -0.01 dB -12.56 dB 6:02 04-Fun For Me (Plankton's Pondlife Mix)
DR8 -0.03 dB -9.03 dB 4:29 05-Indigo (All Seeing I Glamoloko Edit)
DR9 -0.26 dB -12.13 dB 6:44 06-Lotus Eaters (Luke Vibert's Plug Mix)
DR9 -0.01 dB -10.83 dB 3:02 07-The Flipside (DJ Krust Dub)
DR11 -0.01 dB -13.66 dB 6:21 08-Where Is The What (Wonderbook Mix)
DR8 -0.01 dB -9.19 dB 7:07 09-Pure Pleasure Seeker (Pizzicato Mix)
DR9 -0.06 dB -10.69 dB 5:10 10-Day For Night (Quarter Master Mix)
DR10 -0.43 dB -13.36 dB 10:29 11-The Time Is Now (FK's Blissed Out Dub)
––––––––––––––––––––––––––––––––––––––––

Number of tracks: 11
Official DR value: DR10

Samplerate: 44100 Hz
Channels: 2
Bits per sample: 16
Bitrate: 855 kbps
Codec: FLAC
================================================================================

All thanks to bvstudio