Вход в свой аккаунт

Или войдите через соц. сети

VA - What It Is! (1995) {Luv N' Haight compilation} **[RE-POST]**


VA - What It Is! (1995) {Luv N' Haight compilation}
EAC Rip | FLAC with CUE and log | scans | 195 mb
MP3 CBR 320kbps | RAR | 74 mb
Genre: R&B, soul, funk

What It Is! is a compilation album released by Luv N' Haight Records. Released on 16 April, 1995, this is a nice compilation of jazz, soul, and funk with an emphasis on grooves and breaks.


1. Apollis-What It Is (Part 1 & 2)
2. Five Ounces Of Soul-Love Got A Piece Of Your Mind (Part 2)
3. Johnny Lytle-Selim
4. Soul Machine-Twitchie Feet
5. Hilton Felton-Be Bop Boogie
6. Leroy & The Drivers-The Sad Chicken
7. Ricardo Marrero-Babylonia (Take 2)

–-
Track 1 produced by Soul Set Productions
Track 2 produced by Reverend Bedford & Ace Jones
Track 3 produced & arranged by Johnny Lytle
Track 4 produced & arranged by Leon Haywood
Track 5 produced & arranged by Hilton Felton
Track 6 produced by Floyd Smith, arranged by Butch Yates
Track 7 produced & arranged by Ricardo Marrero & The Group

EAC extraction logfile from 1. August 2007, 19:30 for CD
Various / What It Is!

Used drive : LITE-ON DVDRW SOHW-1633S Adapter: 0 ID: 0
Read mode : Secure with NO C2, accurate stream, disable cache
Read offset correction : 12
Overread into Lead-In and Lead-Out : No

Used output format : Internal WAV Routines
44.100 Hz; 16 Bit; Stereo

Other options :
Fill up missing offset samples with silence : Yes
Delete leading and trailing silent blocks : No
Installed external ASPI interface


Track 1
Filename D:FLACVA - What It Is! (1995) [FLAC] {Luv N' Haight compilation}1 - What It Is (Part 1 & 2).wav

Pre-gap length 0:00:02.69

Peak level 99.2 %
Track quality 100.0 %
Test CRC 88EBBA2F
Copy CRC 88EBBA2F
Copy OK

Track 2
Filename D:FLACVA - What It Is! (1995) [FLAC] {Luv N' Haight compilation}2 - Love Got A Piece Of Your Mind (Part 2).wav

Pre-gap length 0:00:03.09

Peak level 97.5 %
Track quality 100.0 %
Test CRC 7C8F601F
Copy CRC 7C8F601F
Copy OK

Track 3
Filename D:FLACVA - What It Is! (1995) [FLAC] {Luv N' Haight compilation}3 - Selim.wav

Pre-gap length 0:00:02.60

Peak level 98.4 %
Track quality 100.0 %
Test CRC 22FE3DB4
Copy CRC 22FE3DB4
Copy OK

Track 4
Filename D:FLACVA - What It Is! (1995) [FLAC] {Luv N' Haight compilation}4 - Twitchie Feet.wav

Pre-gap length 0:00:02.22

Peak level 95.5 %
Track quality 100.0 %
Test CRC B132DCA6
Copy CRC B132DCA6
Copy OK

Track 5
Filename D:FLACVA - What It Is! (1995) [FLAC] {Luv N' Haight compilation}5 - Be Bop Boogie.wav

Pre-gap length 0:00:01.86

Peak level 96.4 %
Track quality 100.0 %
Test CRC 3BD8487F
Copy CRC 3BD8487F
Copy OK

Track 6
Filename D:FLACVA - What It Is! (1995) [FLAC] {Luv N' Haight compilation}6 - The Sad Chicken.wav

Pre-gap length 0:00:01.62

Peak level 95.8 %
Track quality 100.0 %
Test CRC 1DBA5193
Copy CRC 1DBA5193
Copy OK

Track 7
Filename D:FLACVA - What It Is! (1995) [FLAC] {Luv N' Haight compilation}7 - Babylonia (Take 2).wav

Pre-gap length 0:00:03.26

Peak level 97.4 %
Track quality 99.9 %
Test CRC 5160C6C3
Copy CRC 5160C6C3
Copy OK

No errors occured


End of status report


http://www.nitroflare.com/view/52754AE4E9E2F21/WH4TlTl5_lggSFL4C.rar
http://www.nitroflare.com/view/3F039D9D30B4A18/WH4TlTl5_lggSMPE.rar