VA - Déjà Vu (1995) {Luv N' Haight compilation}


VA - Déjà Vu (1995) {Luv N' Haight compilation}
EAC Rip | FLAC with CUE and log | scans | 241 mb
MP3 CBR 320kbps | RAR | 90 mb
Genre: R&B, soul, funk

Déjà Vu is a compilation album released by Luv N' Haight Records. Released on 16 April, 1995, this is a nice compilation of jazz, soul, and funk with an emphasis on grooves and breaks.


1. Weldon Irvine - Déjà Vu
2. Ivan "Boogaloo Joe" Jones - Confusion
3. Chuck Carbo & The Soul Finders - Can I Be Your Squeeze
4. The Propositions - Africana
5. The Vibrettes - Humpty Dump (Parts 1 & 2)
6. Asiko - Hot Black
7. Stone Alliance - Sweetie Pie

EAC extraction logfile from 1. August 2007, 13:13 for CD
Various Artists / Déjà Vu

Used drive : LITE-ON DVDRW SOHW-1633S Adapter: 0 ID: 0
Read mode : Secure with NO C2, accurate stream, disable cache
Read offset correction : 12
Overread into Lead-In and Lead-Out : No

Used output format : Internal WAV Routines
44.100 Hz; 16 Bit; Stereo

Other options :
Fill up missing offset samples with silence : Yes
Delete leading and trailing silent blocks : No
Installed external ASPI interface


Track 1
Filename D:FLACVA - Deja Vu (1995) [FLAC] {Luv N' Haight compilation}1 - Deja Vu.wav

Pre-gap length 0:00:02.82

Peak level 99.0 %
Track quality 100.0 %
Test CRC FD723FC8
Copy CRC FD723FC8
Copy OK

Track 2
Filename D:FLACVA - Deja Vu (1995) [FLAC] {Luv N' Haight compilation}2 - Confusion.wav

Pre-gap length 0:00:03.09

Peak level 99.2 %
Track quality 100.0 %
Test CRC 0D462571
Copy CRC 0D462571
Copy OK

Track 3
Filename D:FLACVA - Deja Vu (1995) [FLAC] {Luv N' Haight compilation}3 - Can I Be Your Squeeze.wav

Pre-gap length 0:00:03.09

Peak level 98.0 %
Track quality 99.9 %
Test CRC 57F5746E
Copy CRC 57F5746E
Copy OK

Track 4
Filename D:FLACVA - Deja Vu (1995) [FLAC] {Luv N' Haight compilation}4 - Africana.wav

Pre-gap length 0:00:03.13

Peak level 98.3 %
Track quality 100.0 %
Test CRC DAF9075D
Copy CRC DAF9075D
Copy OK

Track 5
Filename D:FLACVA - Deja Vu (1995) [FLAC] {Luv N' Haight compilation}5 - Humpty Dump (Parts 1 & 2).wav

Pre-gap length 0:00:03.16

Peak level 95.1 %
Track quality 99.9 %
Test CRC 75C4E336
Copy CRC 75C4E336
Copy OK

Track 6
Filename D:FLACVA - Deja Vu (1995) [FLAC] {Luv N' Haight compilation}6 - Hot Black.wav

Pre-gap length 0:00:03.00

Peak level 96.2 %
Track quality 99.9 %
Test CRC 15F25D36
Copy CRC 15F25D36
Copy OK

Track 7
Filename D:FLACVA - Deja Vu (1995) [FLAC] {Luv N' Haight compilation}7 - Sweetie Pie.wav

Pre-gap length 0:00:03.13

Peak level 96.7 %
Track quality 100.0 %
Test CRC BD575CEA
Copy CRC BD575CEA
Copy OK

No errors occured


End of status report


http://www.nitroflare.com/view/EEC4252789EDB20/D3J4VU_lggSFL4C.rar
http://www.nitroflare.com/view/F97F1C178A7CDC4/D3J4VU_lggSMPE.rar