Pentwater - Pentwater (1977) [Reissue 2003]


Pentwater - Pentwater (1977) [Reissue 2003]
EAC Rip | FLAC (tracks+.cue+log) - 316 MB | MP3 CBR 320 kbps (LAME 3.93) - 122 MB | Covers (3 MB) included
Genre: Progressive Rock | RAR 3% Rec. | Label: Beef Records (Beef #001)

Pentwater is an interesting Chicago combo whose high-decibel rock effectively utilizes contemporary classical elements. They have found a sound that is extremely complex with layer upon layer of instrumentation supported by a lyrical violin and a bewitching flute and characterised by an abuse on polyphonic vocals and counterpoints. All the members are excellent musicians, which is important as the tunes are often intricate. Combining heavy helpings of Yes, Gentle Giant, Genesis and ELP with some of the weirdness of Frank Zappa. One of America's finest progressive bands and recommended highly.

Tracklist:
01. Frustration Mass
02. Living Room Displays
03. Memo
04. Orphan Girl
05. AM
06. Palendrode
07. Prelude to War (Bonus track)
08. War
09. Death (Bonus track)
10. Gwen's Madrigal
11. Wave (Bonus track)
12. Radioactive (Bonus track)

Total time: 50:18

Exact Audio Copy V0.99 prebeta 4 from 23. January 2008

EAC extraction logfile from 6. April 2009, 0:34

Pentwater / Pentwater

Used drive : ASUS DRW-2014S1 Adapter: 1 ID: 0

Read mode : Secure
Utilize accurate stream : Yes
Defeat audio cache : Yes
Make use of C2 pointers : No

Read offset correction : 6
Overread into Lead-In and Lead-Out : No
Fill up missing offset samples with silence : Yes
Delete leading and trailing silent blocks : No
Null samples used in CRC calculations : Yes
Used interface : Installed external ASPI interface
Gap handling : Appended to previous track

Used output format : User Defined Encoder
Selected bitrate : 768 kBit/s
Quality : High
Add ID3 tag : No
Command line compressor : C:Program FilesExact Audio CopyFLACFLAC.EXE
Additional command line options : -6 -V -T "ARTIST=%a" -T "TITLE=%t" -T "ALBUM=%g" -T "DATE=%y" -T "TRACKNUMBER=%n" -T "GENRE=%m" -T "COMMENT=%e" %s -o %d


TOC of the extracted CD

Track | Start | Length | Start sector | End sector
––––––––––––––––––––––––––––-
1 | 0:00.00 | 3:37.53 | 0 | 16327
2 | 3:37.53 | 5:01.05 | 16328 | 38907
3 | 8:38.58 | 4:13.12 | 38908 | 57894
4 | 12:51.70 | 8:36.54 | 57895 | 96648
5 | 21:28.49 | 2:49.41 | 96649 | 109364
6 | 24:18.15 | 4:00.10 | 109365 | 127374
7 | 28:18.25 | 1:11.56 | 127375 | 132755
8 | 29:30.06 | 5:05.08 | 132756 | 155638
9 | 34:35.14 | 2:49.11 | 155639 | 168324
10 | 37:24.25 | 4:03.71 | 168325 | 186620
11 | 41:28.21 | 3:05.54 | 186621 | 200549
12 | 44:34.00 | 5:43.27 | 200550 | 226301


Track 1

Filename C:byPr0ggerPentwater - st (1977 - 2003, Beef Records)[FLAC]1. Frustation Mass.wav

Pre-gap length 0:00:02.00

Peak level 100.0 %
Track quality 100.0 %
Test CRC B184018E
Copy CRC B184018E
Track not present in AccurateRip database
Copy OK

Track 2

Filename C:byPr0ggerPentwater - st (1977 - 2003, Beef Records)[FLAC]2. Living Room Dispays.wav

Peak level 100.0 %
Track quality 100.0 %
Test CRC A4247DFE
Copy CRC A4247DFE
Track not present in AccurateRip database
Copy OK

Track 3

Filename C:byPr0ggerPentwater - st (1977 - 2003, Beef Records)[FLAC]3. Memo.wav

Peak level 100.0 %
Track quality 100.0 %
Test CRC 5BB4C16F
Copy CRC 5BB4C16F
Track not present in AccurateRip database
Copy OK

Track 4

Filename C:byPr0ggerPentwater - st (1977 - 2003, Beef Records)[FLAC]4. Orphan Girl.wav

Peak level 100.0 %
Track quality 100.0 %
Test CRC EDF0AA8C
Copy CRC EDF0AA8C
Track not present in AccurateRip database
Copy OK

Track 5

Filename C:byPr0ggerPentwater - st (1977 - 2003, Beef Records)[FLAC]5. Am.wav

Peak level 100.0 %
Track quality 100.0 %
Test CRC FA99C492
Copy CRC FA99C492
Track not present in AccurateRip database
Copy OK

Track 6

Filename C:byPr0ggerPentwater - st (1977 - 2003, Beef Records)[FLAC]6. Palendrode.wav

Peak level 100.0 %
Track quality 100.0 %
Test CRC 6EAFA07C
Copy CRC 6EAFA07C
Track not present in AccurateRip database
Copy OK

Track 7

Filename C:byPr0ggerPentwater - st (1977 - 2003, Beef Records)[FLAC]7. Prelude To War.wav

Peak level 70.6 %
Track quality 100.0 %
Test CRC 46BE0AC2
Copy CRC 46BE0AC2
Track not present in AccurateRip database
Copy OK

Track 8

Filename C:byPr0ggerPentwater - st (1977 - 2003, Beef Records)[FLAC]8. War.wav

Peak level 100.0 %
Track quality 100.0 %
Test CRC 056F2AD2
Copy CRC 056F2AD2
Track not present in AccurateRip database
Copy OK

Track 9

Filename C:byPr0ggerPentwater - st (1977 - 2003, Beef Records)[FLAC]9. Death.wav

Peak level 68.3 %
Track quality 100.0 %
Test CRC FE7D59EF
Copy CRC FE7D59EF
Track not present in AccurateRip database
Copy OK

Track 10

Filename C:byPr0ggerPentwater - st (1977 - 2003, Beef Records)[FLAC]10. Gwen's Madrigal.wav

Peak level 100.0 %
Track quality 100.0 %
Test CRC D490D2F6
Copy CRC D490D2F6
Track not present in AccurateRip database
Copy OK

Track 11

Filename C:byPr0ggerPentwater - st (1977 - 2003, Beef Records)[FLAC]11. Wave.wav

Peak level 100.0 %
Track quality 100.0 %
Test CRC 8BF4DEB9
Copy CRC 8BF4DEB9
Track not present in AccurateRip database
Copy OK

Track 12

Filename C:byPr0ggerPentwater - st (1977 - 2003, Beef Records)[FLAC]12. Radioactive.wav

Peak level 89.1 %
Track quality 99.9 %
Test CRC 6FBEDDB0
Copy CRC 6FBEDDB0
Track not present in AccurateRip database
Copy OK


None of the tracks are present in the AccurateRip database

No errors occurred

End of status report

[CUETools log; Date: 12.12.2016 18:42:30; Version: 2.1.4]
[CTDB TOCID: wNpLAFMmFwzhUE4eQ6J2LeA7HGI-] disk not present in database.
[AccurateRip ID: 001724a9-00d50103-980bc90c] found.
Track [ CRC | V2 ] Status
01 [97974a8e|176929e0] (1+0/3) Accurately ripped
02 [dc2c47a6|81ae6b25] (1+0/3) Accurately ripped
03 [2f09a84e|84a9dbbd] (1+0/3) Accurately ripped
04 [3c893516|772c655d] (1+0/3) Accurately ripped
05 [7dfc29fb|79e928bd] (1+0/3) Accurately ripped
06 [7d512ee4|e6dc107d] (1+0/3) Accurately ripped
07 [79fc525e|345fd0ad] (1+0/3) Accurately ripped
08 [b4a1c13e|c1f2961c] (1+0/3) Accurately ripped
09 [7fd9c4d1|f057c5fa] (1+0/3) Accurately ripped
10 [bb1f4f13|fd2af908] (1+0/3) Accurately ripped
11 [97d79259|f0d788eb] (1+0/3) Accurately ripped
12 [6c6b4a16|cdc3f828] (1+0/3) Accurately ripped

Track Peak [ CRC32 ] [W/O NULL] [ LOG ]
– 100,0 [E0B0CF2E] [2110C9AA]
01 100,0 [B184018E] [E45D64DD] CRC32
02 99,9 [A4247DFE] [314ACD30] CRC32
03 99,9 [5BB4C16F] [478673C2] CRC32
04 99,9 [EDF0AA8C] [8881AA30] CRC32
05 100,0 [FA99C492] [4CC7C05A] CRC32
06 100,0 [6EAFA07C] [0E2EECC5] CRC32
07 70,6 [46BE0AC2] [8E649A81] CRC32
08 100,0 [056F2AD2] [304720A1] CRC32
09 68,3 [FE7D59EF] [560339E1] CRC32
10 100,0 [D490D2F6] [1F8421A2] CRC32
11 99,9 [8BF4DEB9] [DEEAB452] CRC32
12 89,1 [6FBEDDB0] [AEEB2EA0] CRC32

Thanks to pr0gger

LOSSLESS:

_______________

MP3 320 kbps: