4Front - 2 Studio Albums (1998-2001)


4Front - 2 Studio Albums (1998-2001)
EAC Rip | FLAC (image+.cue+log) - 891 MB | MP3 CBR 320 kbps (LAME 3.93) - 294 MB | Covers included
Genre: Progressive Rock/Fusion/Instrumental | RAR 3% Rec. | Label: Spec Records

Imagine the ebullience of Rush, ELP and Dream Theater injected with fiery jazz fusion laid out over some powerful melodies, and you'll have a good idea of what 4Front sound like. They are an American trio of highly skilled musicians with impressive credentials: Happy the Man's very own drummer Joe Bergamini; guitarist-keyboardist Zak Rizvi and bassist Frank LaPlaca who have performed together for over a decade with US's premier Rush tribute band Power Windows - LaPlaca also played with NYC rock acts Eternal Vision and The Buddha Brains. Under the name of 4Front, they have toured extensively in the Eastern US and in Puerto Rico, opening shows for Saga, Marillion and Kansas. Their material is mostly instrumental.


4Front - Gravity (1998) [Reissue 2002]
EAC Rip | FLAC (image+.cue+log) - 502 MB | MP3 CBR 320 kbps (LAME 3.93) - 157 MB | Covers (4 MB) included
Genre: Progressive Rock/Fusion/Instrumental | RAR 3% Rec. | Label: Spec Records (98001F-2)

Tracklist:
01. Prelude
02. The Front
03. Gravity
04. Turbulence
05. Gearth
06. Home
07. Blur
08. Interlude
09. Space and Time
10. Dr. Chicken (Or: How We Learn to Stop Worrying and Love the Studio)
11. Jamon
12. Ultraviolence
13. A Dying Wish
14. Acid Cowboy (Bonus track)

Total time: 01:04:54

Exact Audio Copy V0.99 prebeta 3 from 28. July 2007

Отчёт EAC об извлечении, выполненном 15. мая 2011, 15:58

4Front / Gravity

Дисковод: TSSTcorpCD/DVDW SH-S182M Adapter: 0 ID: 1

Режим чтения : Достоверность
Использование точного потока : Да
Отключение кэша аудио : Да
Использование указателей C2 : Нет

Коррекция смещения при чтении : 6
Способность читать области Lead-in и Lead-out : Нет
Заполнение пропущенных сэмплов тишиной : Да
Удаление блоков с тишиной в начале и конце : Нет
При вычислениях CRC использовались нулевые сэмплы : Да
Интерфейс : Встроенный Win32-интерфейс для Win NT/2000

Выходной формат : Внутренние WAV-операции
Формат сэмплов : 44.100 Гц; 16 бит; стерео


TOC извлечённого CD

Трек | Старт | Длительность | Начальный сектор | Конечный сектор
––––––––––––––––––––––––––––––––––-
1 | 0:00.00 | 1:30.27 | 0 | 6776
2 | 1:30.27 | 5:14.58 | 6777 | 30384
3 | 6:45.10 | 5:08.26 | 30385 | 53510
4 | 11:53.36 | 2:59.29 | 53511 | 66964
5 | 14:52.65 | 4:41.47 | 66965 | 88086
6 | 19:34.37 | 4:47.20 | 88087 | 109631
7 | 24:21.57 | 5:11.73 | 109632 | 133029
8 | 29:33.55 | 1:25.68 | 133030 | 139472
9 | 30:59.48 | 6:51.63 | 139473 | 170360
10 | 37:51.36 | 8:23.42 | 170361 | 208127
11 | 46:15.03 | 4:01.02 | 208128 | 226204
12 | 50:16.05 | 2:43.16 | 226205 | 238445
13 | 52:59.21 | 7:28.40 | 238446 | 272085
14 | 60:27.61 | 4:26.42 | 272086 | 292077


Характеристики диапазона извлечения и сообщения об ошибках

Выбранный диапазон

Имя файла E:CD Torrent4frontGravity 19984Front - Gravity.wav

Пиковый уровень 100.0 %
Качество диапазона 100.0 %
CRC копии 93AB847B
Копирование… OK

Ошибок не произошло


AccurateRip: сводка

Трек 1 точное извлечение (доверие 5) [27BDDF50]
Трек 2 точное извлечение (доверие 5) [B6CAC9CF]
Трек 3 точное извлечение (доверие 6) [43704ABA]
Трек 4 точное извлечение (доверие 5) [D1A515F7]
Трек 5 точное извлечение (доверие 5) [A5C749B5]
Трек 6 точное извлечение (доверие 6) [FADF65A6]
Трек 7 точное извлечение (доверие 6) [110BF019]
Трек 8 точное извлечение (доверие 5) [7EF0A945]
Трек 9 точное извлечение (доверие 5) [34B55E69]
Трек 10 точное извлечение (доверие 6) [58C7A4C4]
Трек 11 точное извлечение (доверие 6) [D1BA3D37]
Трек 12 точное извлечение (доверие 6) [F0B87237]
Трек 13 точное извлечение (доверие 6) [B71BD59D]
Трек 14 точное извлечение (доверие 6) [62D612E3]

Все треки извлечены точно

Конец отчёта

[CUETools log; Date: 22.12.2016 5:17:27; Version: 2.1.4]
[CTDB TOCID: RwHPNxgs8kYW.iW9UgJcB0J1oRo-] found.
Track | CTDB Status
1 | (4/4) Accurately ripped
2 | (4/4) Accurately ripped
3 | (4/4) Accurately ripped
4 | (4/4) Accurately ripped
5 | (4/4) Accurately ripped
6 | (4/4) Accurately ripped
7 | (4/4) Accurately ripped
8 | (4/4) Accurately ripped
9 | (4/4) Accurately ripped
10 | (4/4) Accurately ripped
11 | (4/4) Accurately ripped
12 | (4/4) Accurately ripped
13 | (4/4) Accurately ripped
14 | (4/4) Accurately ripped
[AccurateRip ID: 001f0ddc-0153c330-cd0f360e] found.
Track [ CRC | V2 ] Status
01 [27bddf50|77946443] (6+0/6) Accurately ripped
02 [b6cac9cf|71a7d8ec] (6+0/6) Accurately ripped
03 [43704aba|ec6821a2] (7+0/7) Accurately ripped
04 [d1a515f7|d10b1632] (6+0/6) Accurately ripped
05 [a5c749b5|2e8d0008] (6+0/6) Accurately ripped
06 [fadf65a6|60c8cbf2] (7+0/7) Accurately ripped
07 [110bf019|73c661a2] (7+0/7) Accurately ripped
08 [7ef0a945|11028066] (6+0/6) Accurately ripped
09 [34b55e69|b7b677b5] (6+0/6) Accurately ripped
10 [58c7a4c4|6e0333a2] (7+0/7) Accurately ripped
11 [d1ba3d37|bab3f9ec] (7+0/7) Accurately ripped
12 [f0b87237|32ede63a] (7+0/7) Accurately ripped
13 [b71bd59d|9e076028] (7+0/7) Accurately ripped
14 [62d612e3|46cc7f6a] (7+0/7) Accurately ripped

Track Peak [ CRC32 ] [W/O NULL] [ LOG ]
– 100,0 [93AB847B] [1AB8CAF2] CRC32
01 96,5 [39977A51] [1CC21A8D]
02 96,6 [05839DBC] [AD0D646D]
03 96,6 [7231CE25] [F72F4FFA]
04 96,6 [258E209C] [793E7417]
05 96,6 [4136F1EE] [227E18D7]
06 96,6 [A5499BFF] [D4BFAA82]
07 96,6 [EEE73A43] [6B8DC29C]
08 96,6 [A218A270] [B287B94C]
09 96,6 [ADA0A984] [324B98B3]
10 96,6 [2E41BFC3] [512D74F2]
11 96,6 [CE77FDC4] [55992A6B]
12 96,6 [BD593F39] [0BFF6EA3]
13 96,6 [0E1A9CB9] [31BE90B9]
14 100,0 [7A0824C3] [5AECB478]


4Front - Radio Waves Goodbye (2001)
EAC Rip | FLAC (image+.cue+log) - 389 MB | MP3 CBR 320 kbps (LAME 3.93) - 137 MB | Covers (9 MB) included
Genre: Progressive Rock/Fusion/Instrumental | RAR 3% Rec. | Label: Spec Records (01001F-2)

Tracklist:
01. Airtime
02. Tunnel Vision
03. Hideaway
04. Special Patrol Group
05. Space Oddity 2001
06. Burial At Sea
07. Fuse
08. Learning to Crawl
09. 747
10. Memories of Kansas
11. Descent
12. Radio Waves Goodbye

Total time: 54:13

Exact Audio Copy V0.99 prebeta 3 from 28. July 2007

Отчёт EAC об извлечении, выполненном 15. мая 2011, 15:36

4Front / Radio Waves Goodbye

Дисковод: TSSTcorpCD/DVDW SH-S182M Adapter: 0 ID: 1

Режим чтения : Достоверность
Использование точного потока : Да
Отключение кэша аудио : Да
Использование указателей C2 : Нет

Коррекция смещения при чтении : 6
Способность читать области Lead-in и Lead-out : Нет
Заполнение пропущенных сэмплов тишиной : Да
Удаление блоков с тишиной в начале и конце : Нет
При вычислениях CRC использовались нулевые сэмплы : Да
Интерфейс : Встроенный Win32-интерфейс для Win NT/2000

Выходной формат : Внутренние WAV-операции
Формат сэмплов : 44.100 Гц; 16 бит; стерео


TOC извлечённого CD

Трек | Старт | Длительность | Начальный сектор | Конечный сектор
––––––––––––––––––––––––––––––––––-
1 | 0:00.00 | 1:59.02 | 0 | 8926
2 | 1:59.02 | 5:54.60 | 8927 | 35536
3 | 7:53.62 | 3:19.20 | 35537 | 50481
4 | 11:13.07 | 3:00.31 | 50482 | 64012
5 | 14:13.38 | 6:34.06 | 64013 | 93568
6 | 20:47.44 | 5:13.22 | 93569 | 117065
7 | 26:00.66 | 4:05.29 | 117066 | 135469
8 | 30:06.20 | 5:53.02 | 135470 | 161946
9 | 35:59.22 | 2:21.42 | 161947 | 172563
10 | 38:20.64 | 5:54.44 | 172564 | 199157
11 | 44:15.33 | 5:23.45 | 199158 | 223427
12 | 49:39.03 | 4:34.02 | 223428 | 243979


Характеристики диапазона извлечения и сообщения об ошибках

Выбранный диапазон

Имя файла E:CD Torrent4frontRadio Waves Goodbye4Front - Radio Waves Goodbye.wav

Пиковый уровень 98.8 %
Качество диапазона 100.0 %
CRC копии C311F968
Копирование… OK

Ошибок не произошло


AccurateRip: сводка

Трек 1 нет в базе данных
Трек 2 нет в базе данных
Трек 3 нет в базе данных
Трек 4 нет в базе данных
Трек 5 нет в базе данных
Трек 6 нет в базе данных
Трек 7 нет в базе данных
Трек 8 нет в базе данных
Трек 9 нет в базе данных
Трек 10 нет в базе данных
Трек 11 нет в базе данных
Трек 12 нет в базе данных

Ни одного трека нет в базе AccurateRip

Конец отчёта

[CUETools log; Date: 22.12.2016 5:18:03; Version: 2.1.4]
[CTDB TOCID: ugOsOwihyMjMhsjYAM1z9prCMqU-] found.
Track | CTDB Status
1 | (1/1) Accurately ripped
2 | (1/1) Accurately ripped
3 | (1/1) Accurately ripped
4 | (1/1) Accurately ripped
5 | (1/1) Accurately ripped
6 | (1/1) Accurately ripped
7 | (1/1) Accurately ripped
8 | (1/1) Accurately ripped
9 | (1/1) Accurately ripped
10 | (1/1) Accurately ripped
11 | (1/1) Accurately ripped
12 | (1/1) Accurately ripped
[AccurateRip ID: 0016fb5d-00dac750-a20cb50c] found.
Track [ CRC | V2 ] Status
01 [9d1cb043|1ab7fc9f] (0+1/1) Accurately ripped
02 [93b845bf|487c83b8] (0+1/1) Accurately ripped
03 [788897dc|4d5e32c2] (0+1/1) Accurately ripped
04 [8265a77d|fdea45f6] (0+1/1) Accurately ripped
05 [6d9a8528|511167bc] (0+1/1) Accurately ripped
06 [6e10367d|b307f0f5] (0+1/1) Accurately ripped
07 [7768f2e2|f0fb37b1] (0+1/1) Accurately ripped
08 [821d590e|3d4836b8] (0+1/1) Accurately ripped
09 [a00c979f|727c4579] (0+1/1) Accurately ripped
10 [98151cb7|e3e7c2ff] (0+1/1) Accurately ripped
11 [7a20cfb6|56b664ff] (0+1/1) Accurately ripped
12 [65e33878|66dd0980] (0+1/1) Accurately ripped

Track Peak [ CRC32 ] [W/O NULL] [ LOG ]
– 98,8 [C311F968] [1A764B63] CRC32
01 98,8 [395237C9] [4E270759]
02 98,8 [4BF9504F] [1AC09402]
03 98,8 [5368BB31] [5BE6776B]
04 98,8 [AD937A21] [0D1FA495]
05 98,8 [F2A945B9] [65F49ADF]
06 98,8 [0953FD8B] [69A215BE]
07 98,8 [CA7956B9] [55A98005]
08 98,8 [83FB2137] [14FACCA2]
09 98,8 [7E5DECE1] [6EF84A4F]
10 98,8 [792DE163] [A6A3216E]
11 98,8 [1D5BBC4C] [8BE8DC09]
12 98,8 [0E9E6421] [A1588FB0]

Thanks to Комаров Сергей

4Front - Gravity (1998) [Reissue 2002]

LOSSLESS:
http://www.nitroflare.com/view/F3E38D59C35A7E8/14F-G_98.rar
_______________

MP3 320 kbps:
http://www.nitroflare.com/view/9B47983ED259771/14F-G_98_M.rar
______________________________________

4Front - Radio Waves Goodbye (2001)

LOSSLESS:
http://www.nitroflare.com/view/0D6DE58675EAB26/24F-RWG_01.rar
_______________

MP3 320 kbps:
http://www.nitroflare.com/view/BB4859AE85131C9/24F-RWG_01_M.rar

4Front - Gravity (1998) [Reissue 2002]

LOSSLESS:

_______________

MP3 320 kbps:

______________________________________

4Front - Radio Waves Goodbye (2001)

LOSSLESS:

_______________

MP3 320 kbps: