Sarah Connor - Key To My Soul (2003)


Sarah Connor - Key To My Soul (2003)
EAC | FLAC (image+.cue, log) | Covers Included | 55:34 | 411 MB
Genre: Pop | Label: X-cell Records | Catalog: XCL 513863 9

Key to My Soul is the third studio album by German recording artist Sarah Connor, released in German-speaking Europe on November 17, 2003 by X-Cell Records. It peaked at number eight on the German Albums Chart and spawned two number-one singles: "Music Is the Key" featuring Naturally 7 and "Just One Last Dance" featuring Natural (as a duet with lead singer Marc Terenzi).


Track List:

01. Music is the key (4:38)
02. Love is color-blind (4:46)
03. Just one last dance (4:30)
04. My intuition (3:54)
05. Daddy's eyes (4:09)
06. Whatcha wearing? (0:46)
07. Ihasta la vista! (3:44)
08. I'm gonna find you (4:47)
09. When two becom one (4:52)
10. Are u ready to ride? (3:35)
11. For the people (3:20)
12. I want some of that (3:51)
13. At the station (0:45)
14. Every moment of my life (4:16)
15. Turn off the lights (3:24)

Exact Audio Copy V0.99 prebeta 4 from 23. January 2008

Отчёт EAC об извлечении, выполненном 1. марта 2009, 15:01

Sarah Connor / Key To my Soul

Дисковод: TEAC DW-548D Adapter: 1 ID: 0

Режим чтения : Достоверность
Использование точного потока : Да
Отключение кэша аудио : Да
Использование указателей C2 : Нет

Коррекция смещения при чтении : 6
Способность читать области Lead-in и Lead-out : Нет
Заполнение пропущенных сэмплов тишиной : Да
Удаление блоков с тишиной в начале и конце : Нет
При вычислениях CRC использовались нулевые сэмплы : Да
Интерфейс : Установленный внешний ASPI-интерфейс

Выходной формат : Пользовательский кодировщик
Выбранный битрейт : 768 kBit/s
Качество : Высокий
Добавление ID3-тэга : Нет
Утилита сжатия : C:Program FilesExact Audio CopyFlacflac.EXE
Дополнительные параметры : -8 -V %s -o %d


TOC извлечённого CD

Трек | Старт | Длительность | Начальный сектор | Конечный сектор
––––––––––––––––––––––––––––––––––-
1 | 0:00.00 | 4:37.58 | 0 | 20832
2 | 4:37.58 | 4:46.27 | 20833 | 42309
3 | 9:24.10 | 4:29.40 | 42310 | 62524
4 | 13:53.50 | 3:54.27 | 62525 | 80101
5 | 17:48.02 | 4:08.48 | 80102 | 98749
6 | 21:56.50 | 0:45.69 | 98750 | 102193
7 | 22:42.44 | 3:44.36 | 102194 | 119029
8 | 26:27.05 | 4:46.58 | 119030 | 140537
9 | 31:13.63 | 4:51.38 | 140538 | 162400
10 | 36:05.26 | 3:34.38 | 162401 | 178488
11 | 39:39.64 | 3:19.65 | 178489 | 193478
12 | 42:59.54 | 3:50.53 | 193479 | 210781
13 | 46:50.32 | 0:44.49 | 210782 | 214130
14 | 47:35.06 | 4:15.67 | 214131 | 233322
15 | 51:50.73 | 3:23.56 | 233323 | 248603


Характеристики диапазона извлечения и сообщения об ошибках

Выбранный диапазон

Имя файла C:Documents and SettingsSarah Connor - Key To my SoulSarah Connor - Key To my Soul.wav

Пиковый уровень 100.0 %
Качество диапазона 100.0 %
CRC теста FC8C0E6A
CRC копии FC8C0E6A
Копирование… OK

Ошибок не произошло

Конец отчёта

[CUETools log; Date: 07.01.2017 10:35:48; Version: 2.1.5]
[CTDB TOCID: SY1LLS4iFXOwXoYEm0fA3jab9p8-] found.
Track | CTDB Status
1 | (3/3) Accurately ripped
2 | (3/3) Accurately ripped
3 | (3/3) Accurately ripped
4 | (3/3) Accurately ripped
5 | (3/3) Accurately ripped
6 | (3/3) Accurately ripped
7 | (3/3) Accurately ripped
8 | (3/3) Accurately ripped
9 | (3/3) Accurately ripped
10 | (3/3) Accurately ripped
11 | (3/3) Accurately ripped
12 | (3/3) Accurately ripped
13 | (3/3) Accurately ripped
14 | (3/3) Accurately ripped
15 | (3/3) Accurately ripped
[AccurateRip ID: 00202863-01661af9-dc0cf20f] found.
Track [ CRC | V2 ] Status
01 [f152fb6c|e30ba939] (0+0/1) No match
02 [1f13ddba|94307cce] (0+0/1) No match
03 [caa5f0be|81121e76] (0+0/1) No match
04 [6244e154|9f052328] (0+0/1) No match
05 [7eb75309|98b73420] (0+0/1) No match
06 [826aa356|aa482524] (0+0/1) No match
07 [9b0faeaf|260e9dd2] (0+0/1) No match
08 [e5adf3c9|b13ac5ea] (0+0/1) No match
09 [17c4b882|3dae6382] (0+0/1) No match
10 [2fadd22f|67b44b2b] (0+0/1) No match
11 [e10963ae|757d8ca4] (0+0/1) No match
12 [b1098796|2b7beffa] (0+0/1) No match
13 [7e9f28c4|3a92325b] (0+0/1) No match
14 [4e899bc8|b09d43bf] (0+0/1) No match
15 [3826106d|be0f278b] (0+0/1) No match
Offsetted by 394:
01 [e66328cc] (1/1) Accurately ripped
02 [712b1eb8] (1/1) Accurately ripped
03 [e902f1aa] (1/1) Accurately ripped
04 [1caddbaa] (1/1) Accurately ripped
05 [d6495383] (1/1) Accurately ripped
06 [4d363656] (1/1) Accurately ripped
07 [a9c440f5] (1/1) Accurately ripped
08 [d47e8769] (1/1) Accurately ripped
09 [1cc20f3c] (1/1) Accurately ripped
10 [71fcd885] (1/1) Accurately ripped
11 [e88b76a8] (1/1) Accurately ripped
12 [cec55fd0] (1/1) Accurately ripped
13 [2c67a20a] (1/1) Accurately ripped
14 [96f9b051] (0/1) No match (V2 was not tested)
15 [3626f394] (0/1) No match (V2 was not tested)

Track Peak [ CRC32 ] [W/O NULL] [ LOG ]
– 100,0 [FC8C0E6A] [45436AC7] CRC32
01 100,0 [9E90077A] [146D1D3B]
02 100,0 [4FD5E6CD] [0369F6EB]
03 99,9 [B3CA819D] [8E2A5373]
04 99,4 [67C2FD07] [0075D8FA]
05 100,0 [7AD0BD54] [4D72AC5F]
06 99,0 [F2837354] [877F5E70]
07 99,6 [6D3DB90C] [23792415]
08 99,9 [2EBBC930] [561746B9]
09 99,9 [D0B7E0AE] [BE4FA089]
10 100,0 [8FAC23D8] [2613DAA8]
11 99,0 [AC0B6B61] [9121A382]
12 100,0 [3203E953] [C2EF265F]
13 92,9 [E6FE4FA1] [7007FD39]
14 99,8 [7B18CF5E] [4B9C0301]
15 100,0 [BC27E5E0] [6A5BFD01]


Thanks to the Original ripper wow42!

Download: