Blues Magoos - Psychedelic Lollipop (1966) {Mercury-Repertoire bonus tracks rel 2005}


Blues Magoos - Psychedelic Lollipop (1966) {Mercury-Repertoire bonus tracks rel 2005}
EAC rip (secure mode) | FLAC (tracks)+CUE+LOG -> 283 Mb | MP3 @320 -> 101 Mb
Full Artwork @ 300 dpi (png) -> 36 Mb | 5% repair rar
© 1966, 2005 Mercury Records / Repertoire Records | REPUK 1049
Rock / Psychedelic Rock

"(We Ain't Got) Nothin' Yet" is extraordinary and magical; like the Box Tops' "The Letter," it's one of those little two-minute blasts of pop which brought the transistor radio to life and which is the proverbial breath of fresh air on oldies radio stations daring enough to play psychedelia. Psychedelic Lollipop is the real thing; the Blues Magoos on the LP cover look like Captain Kirk abandoned them on some forgotten Star Trek planet, and the music inside the sleeve is authentic acid rock. They stretch John D. Loudermilk's "Tobacco Road" across four-and-a-half Seeds-style minutes, obliterating the Nashville Teens' 1964 hit recording in the process.

David Blue's "Queen of My Nights" may have inspired the Troggs' 1968 hit "Love Is All Around." The melody might be different, but the intro music is identical to what Reg Presley gave the world a couple of years after this. Producers Bob Wyld and Art Polhemus did a great job of keeping the intensity up across two sides of this album. James Brown's "I'll Go Crazy" gets splashy garage rock sounds and Mike Esposito's guitar power cannot be denied. Check out the jangle pop mayhem on "Gotta Get Away." According to the LP The History of Syracuse Music, Vol. 7, Esposito performed in the Escorts with Felix Cavaliere, and that vibe from the Rascals' rendition of Lori Burton's "I Ain't Gonna Eat Out My Heart Anymore" has the same type of authority these kids pour all over Psychedelic Lollipop. "One by One" has the band going from the garage rock group to the Beatles transition – and what's so disappointing is that they couldn't mature in this direction. Had this lineup stuck around for the ABC albums, who knows what they might have been capable of? Psychedelic Lollipop is a solid and precious gem from the Nuggets vaults, the difference between this and other one-hit wonders being that you can play the entire album repeatedly – quite an accomplishment coming from the era of the hit single. That such a tremendous smash like "(We Ain't Got) Nothin' Yet" kicks the whole thing off is just an added bonus. [The 2005 reissue of the album adds the single versions of "Tobacco Road," "Sometimes I Think About," "(We Ain't Got) Nothin' Yet" and "Gotta Get Away."]


Personnel:
Ralph Scala – Keyboards, vocals
Emil “Peppy” Theilhelm – Guitar, vocals
Ron Gilbert – Bass guitar, vocals
Mike Esposito – Guitar
Geoff Daking – Drums, percussion

tracklist:
01 - (We Ain't Got) Nothin' Yet
02 - Love Seems Doomed
03 - Tobacco Road
04 - Queen of My Nights
05 - I'll Go Crazy
06 - Gotta Get Away
07 - Sometimes I Think About
08 - One by One
09 - Worried Life Blues
10 - She's Coming Home

bonus tracks
11 - Tobacco Road
12 - Sometimes I Think About
13 - (We Ain't Got) Nothin' Yet
14 - Gotta Get Away

Exact Audio Copy V1.0 beta 3 from 29. August 2011

EAC extraction logfile from 21. March 2015, 19:14

Blues Magoos / Psychedelic Lollipop [Bonus Tracks]

Used drive : HL-DT-STDVD+-RW GT80N Adapter: 0 ID: 0

Read mode : Secure
Utilize accurate stream : Yes
Defeat audio cache : Yes
Make use of C2 pointers : No

Read offset correction : 102
Overread into Lead-In and Lead-Out : No
Fill up missing offset samples with silence : Yes
Delete leading and trailing silent blocks : No
Null samples used in CRC calculations : Yes
Used interface : Native Win32 interface for Win NT & 2000
Gap handling : Appended to previous track

Used output format : User Defined Encoder
Selected bitrate : 128 kBit/s
Quality : High
Add ID3 tag : No
Command line compressor : C:Program Files (x86)Exact Audio CopyFLACFLAC.EXE
Additional command line options : -8 -V -T "ARTIST=%artist%" -T "TITLE=%title%" -T "ALBUM=%albumtitle%" -T "DATE=%year%" -T "TRACKNUMBER=%tracknr%" -T "TOTALTRACKS=%numtracks%" -T "GENRE=%genre%" -T "ALBUMARTIST=%albumartist%" -T "ALBUM ARTIST=%albumartist%" -T "COMMENT=EAC Secure Mode, Test & Copy, AccurateRip, FLAC -8" %source%


TOC of the extracted CD

Track | Start | Length | Start sector | End sector
––––––––––––––––––––––––––––-
1 | 0:00.00 | 2:17.70 | 0 | 10344
2 | 2:17.70 | 3:01.63 | 10345 | 23982
3 | 5:19.58 | 4:41.70 | 23983 | 45127
4 | 10:01.53 | 3:05.07 | 45128 | 59009
5 | 13:06.60 | 2:03.07 | 59010 | 68241
6 | 15:09.67 | 2:42.09 | 68242 | 80400
7 | 17:52.01 | 4:12.45 | 80401 | 99345
8 | 22:04.46 | 2:51.58 | 99346 | 112228
9 | 24:56.29 | 3:53.36 | 112229 | 129739
10 | 28:49.65 | 2:43.20 | 129740 | 141984
11 | 31:33.10 | 4:41.70 | 141985 | 163129
12 | 36:15.05 | 4:12.45 | 163130 | 182074
13 | 40:27.50 | 2:17.08 | 182075 | 192357
14 | 42:44.58 | 2:40.72 | 192358 | 204429


Track 1

Filename C:UsersporcupineDesktopEAC1 - (We Ain't Got) Nothin' Yet.wav

Pre-gap length 0:00:02.00

Peak level 98.8 %
Extraction speed 2.3 X
Track quality 100.0 %
Test CRC 2433F7BD
Copy CRC 2433F7BD
Accurately ripped (confidence 6) [E3B51BF2] (AR v2)
Copy OK

Track 2

Filename C:UsersporcupineDesktopEAC2 - Love Seems Doomed.wav

Pre-gap length 0:00:01.59

Peak level 96.8 %
Extraction speed 2.6 X
Track quality 100.0 %
Test CRC 7FB3050B
Copy CRC 7FB3050B
Accurately ripped (confidence 6) [20ECFCB1] (AR v2)
Copy OK

Track 3

Filename C:UsersporcupineDesktopEAC3 - Tobacco Road.wav

Pre-gap length 0:00:01.59

Peak level 98.8 %
Extraction speed 3.1 X
Track quality 100.0 %
Test CRC FB777C87
Copy CRC FB777C87
Accurately ripped (confidence 6) [E69C5CC6] (AR v2)
Copy OK

Track 4

Filename C:UsersporcupineDesktopEAC4 - Queen of My Nights.wav

Pre-gap length 0:00:01.59

Peak level 98.8 %
Extraction speed 3.2 X
Track quality 100.0 %
Test CRC 9060EBF4
Copy CRC 9060EBF4
Accurately ripped (confidence 6) [89B7C581] (AR v2)
Copy OK

Track 5

Filename C:UsersporcupineDesktopEAC5 - I'll Go Crazy.wav

Pre-gap length 0:00:01.59

Peak level 98.3 %
Extraction speed 2.9 X
Track quality 100.0 %
Test CRC 2A25CD0F
Copy CRC 2A25CD0F
Accurately ripped (confidence 6) [5294C590] (AR v2)
Copy OK

Track 6

Filename C:UsersporcupineDesktopEAC6 - Gotta Get Away.wav

Pre-gap length 0:00:01.59

Peak level 98.8 %
Extraction speed 3.4 X
Track quality 100.0 %
Test CRC 004DE5D3
Copy CRC 004DE5D3
Accurately ripped (confidence 6) [DC3B25EF] (AR v2)
Copy OK

Track 7

Filename C:UsersporcupineDesktopEAC7 - Sometimes I Think About.wav

Pre-gap length 0:00:01.59

Peak level 98.0 %
Extraction speed 3.7 X
Track quality 100.0 %
Test CRC 0ED616C0
Copy CRC 0ED616C0
Accurately ripped (confidence 6) [53BABBE0] (AR v2)
Copy OK

Track 8

Filename C:UsersporcupineDesktopEAC8 - One by One.wav

Pre-gap length 0:00:01.59

Peak level 98.8 %
Extraction speed 3.7 X
Track quality 100.0 %
Test CRC 7E13BC0D
Copy CRC 7E13BC0D
Accurately ripped (confidence 6) [EA0245EB] (AR v2)
Copy OK

Track 9

Filename C:UsersporcupineDesktopEAC9 - Worried Life Blues.wav

Pre-gap length 0:00:01.59

Peak level 98.8 %
Extraction speed 3.8 X
Track quality 100.0 %
Test CRC DD0320FB
Copy CRC DD0320FB
Accurately ripped (confidence 6) [BAC4E272] (AR v2)
Copy OK

Track 10

Filename C:UsersporcupineDesktopEAC10 - She's Coming Home.wav

Pre-gap length 0:00:01.59

Peak level 98.8 %
Extraction speed 3.5 X
Track quality 100.0 %
Test CRC E38CAB0E
Copy CRC E38CAB0E
Accurately ripped (confidence 6) [4091A742] (AR v2)
Copy OK

Track 11

Filename C:UsersporcupineDesktopEAC11 - Tobacco Road.wav

Pre-gap length 0:00:01.59

Peak level 97.0 %
Extraction speed 3.8 X
Track quality 100.0 %
Test CRC 42020FAF
Copy CRC 42020FAF
Accurately ripped (confidence 6) [DAABB70D] (AR v2)
Copy OK

Track 12

Filename C:UsersporcupineDesktopEAC12 - Sometimes I Think About.wav

Pre-gap length 0:00:01.59

Peak level 97.1 %
Extraction speed 3.9 X
Track quality 100.0 %
Test CRC 1AE69E69
Copy CRC 1AE69E69
Accurately ripped (confidence 6) [B198C2EA] (AR v2)
Copy OK

Track 13

Filename C:UsersporcupineDesktopEAC13 - (We Ain't Got) Nothin' Yet.wav

Pre-gap length 0:00:01.59

Peak level 97.9 %
Extraction speed 2.9 X
Track quality 99.9 %
Test CRC B57697E4
Copy CRC B57697E4
Accurately ripped (confidence 6) [EC58AA14] (AR v2)
Copy OK

Track 14

Filename C:UsersporcupineDesktopEAC14 - Gotta Get Away.wav

Pre-gap length 0:00:01.58

Peak level 99.3 %
Extraction speed 4.2 X
Track quality 100.0 %
Test CRC 5FC4AF0F
Copy CRC 5FC4AF0F
Accurately ripped (confidence 6) [7BA53F9B] (AR v2)
Copy OK


All tracks accurately ripped

No errors occurred

End of status report

==== Log checksum EEB263578E5A2F7E720138970429FE27E364DEA8965654300A5950612F4453AC ====





All thanks goes to the original releaser!


===