Вход в свой аккаунт

Или войдите через соц. сети

Ali Campbell (UB40) - Silhouette (2014) [US Pressing]


Ali Campbell (UB40) - Silhouette (2014) [US Pressing]
EAC Secure Rip | FLAC (Image + Cue + Log) - 338 MB | Complete Scans (Jpeg 600 dpi) - 138 MB | MP3 (CBR320 Kbps) - 119 MB
Reggae | Metropolis Records | MET 961 | 47:13 minutes | Hosted on: NirtoFlare & Oboom

Silhouette is the new album from Ali Campbell, the legendary voice of UB40 reunited with Astro & Mickey. Recorded in London's renowned RAK Studios, the album is an inspired mix of freshly-minted new songs and sparkling, reggaefied cover versions of classics by The Beatles, Bob Dylan, The Chi-Lites and others.

“ Reunited with UB40 members Astro and Mickey means Ali Campbell's 2014 solo effort is so almost-UB40 it could be called UB35, but he left his brother in charge of that former band, so kudos for giving family a chance instead making this a full-on reunion. That said, Silhouette would make an underwhelming UB40 reunion because it's certainly not like the revolutionary band that did "One in Ten," or like the pop stars who covered "Red Red Wine." What it is is a wonderfully casual and light reggae record, filled with great grooves and worthwhile lyrics, up to and including the contemporary commentary of "Cyber Bully Boys" ("Screaming madly through your fingertips/Words that would have burnt your lips"). Covers include Bob Dylan's "I Want You" (although the liner notes grab the writing credits for LL Cool J's "I Want You" as a big, bizarre "oops") and there's the classic title track, which proves Ali can still deliver emotion with a song with the word "Silhouette" as 75-percent of its lyrics. In fine voice and in hang-out mode, Silhouette is a small, sweet treat for fans of Ali Campbell. Reviewed by David Jeffries of allmusic.com ”


Exact Audio Copy V1.0 beta 2 from 29. April 2011

EAC extraction logfile from 24. October 2014, 18:49

Ali Campbell / Silhouette

Used drive : HL-DT-STBD-RE BH14NS40 Adapter: 0 ID: 2

Read mode : Secure
Utilize accurate stream : Yes
Defeat audio cache : Yes
Make use of C2 pointers : No

Read offset correction : 6
Overread into Lead-In and Lead-Out : No
Fill up missing offset samples with silence : Yes
Delete leading and trailing silent blocks : No
Null samples used in CRC calculations : Yes
Used interface : Native Win32 interface for Win NT & 2000

Used output format : User Defined Encoder
Selected bitrate : 1024 kBit/s
Quality : High
Add ID3 tag : No
Command line compressor : C:Program Files (x86)Exact Audio CopyFlacflac.exe
Additional command line options : -V -5 -T "artist=%albumartist%" -T "title=%title%" -T "album=%albumtitle%" -T "date=%year%" -T "genre=%genre%" -T "tracknumber=%tracknr%" %source%


TOC of the extracted CD

Track | Start | Length | Start sector | End sector
---------------------------------------------------------
1 | 0:00.00 | 2:16.56 | 0 | 10255
2 | 2:16.56 | 4:03.70 | 10256 | 28550
3 | 6:20.51 | 4:07.05 | 28551 | 47080
4 | 10:27.56 | 2:45.12 | 47081 | 59467
5 | 13:12.68 | 3:47.73 | 59468 | 76565
6 | 17:00.66 | 2:50.38 | 76566 | 89353
7 | 19:51.29 | 4:20.41 | 89354 | 108894
8 | 24:11.70 | 3:00.54 | 108895 | 122448
9 | 27:12.49 | 3:26.63 | 122449 | 137961
10 | 30:39.37 | 4:21.41 | 137962 | 157577
11 | 35:01.03 | 4:15.51 | 157578 | 176753
12 | 39:16.54 | 3:37.45 | 176754 | 193073
13 | 42:54.24 | 4:17.59 | 193074 | 212407


Range status and errors

Selected range

Filename C:EACAli Campbell - (2014) Silhouette [US Pressing]Ali Campbell - Silhouette.wav

Peak level 99.8 %
Extraction speed 5.9 X
Range quality 100.0 %
Test CRC 459452DD
Copy CRC 459452DD
Copy OK

No errors occurred


AccurateRip summary

Track 1 not present in database
Track 2 not present in database
Track 3 not present in database
Track 4 not present in database
Track 5 not present in database
Track 6 not present in database
Track 7 not present in database
Track 8 not present in database
Track 9 not present in database
Track 10 not present in database
Track 11 not present in database
Track 12 not present in database
Track 13 not present in database

None of the tracks are present in the AccurateRip database

End of status report

==== Log checksum 75F9C5378D7A1AD5BBEB17762DF468245AAA2BE09BEE73DF95E8EE45D046EA56 ====



Track Listing:

01. Anytime At All (John Lennon, Paul McCartney)
02. Silhouette (Bob Crewe, Frank Slay Jnr.)
03. Cyber Bully Boys (Ali Campbell)
04. Reggae Music (Ali Campbell)
05. I'm Missing You (Lionel Richie)
06. Who Will Remember Them (Ali Campbell)
07. Fajian Sunset (Ali Campbell)
08. Sha La La (George Agord, Sydney Crooks, Jackie Robinson)
09. Tomorrow On My Shoulders (Ali Campbell, Ian Campbell)
10. Our Love (Ali Campbell)
11. History (Ali Campbell)
12. I Want You (Rick Rubin, James Tood Smith)
13. Yes I'm Ready (Reve Gipson)


Performers:

Alistair Campbell - vocals / rhythm guitar / lead guitar
Terrence Wilson - vocals
Michael Virtue - additional keys
Don Chandler - bass
Paul Slowely - drums
Michael Martin - keys
Winston Delandro - lead guitar / rhythm guitar
John Johnson - trombone
Colin Graham - trumpet
Winston Rose - saxophone
Matthew Hoy - backing vocals

Produced By: Ali Campbell
Mixed By: Ali Campbell
Engineer: Helen Atkinson, RAK Studios
Mastered By: Sterling Studios, New York

Album Released: October 6, 2014 (UK) Cooking Vinyl
Album Released: October 14, 2014 (US) Metropolis Records


foobar2000 1.3.2 / Dynamic Range Meter 1.1.0
log date: 2014-10-24 23:15:42

--------------------------------------------------------------------------------
Analyzed: Ali Campbell / Silhouette
--------------------------------------------------------------------------------

DR Peak RMS Duration Track
--------------------------------------------------------------------------------
DR6 -0.01 dB -7.00 dB 2:17 01-Anytime At All
DR5 -0.01 dB -6.15 dB 4:04 02-Silhouette
DR6 -0.01 dB -7.05 dB 4:07 03-Cyber Bully Boys
DR6 -0.01 dB -6.75 dB 2:45 04-Reggae Music
DR5 -0.01 dB -5.64 dB 3:48 05-I'm Missing You
DR6 -0.01 dB -7.03 dB 2:51 06-Who Will Remember Them
DR6 -0.01 dB -7.37 dB 4:21 07-Fajian Sunset
DR5 -0.01 dB -5.86 dB 3:01 08-Sha La La
DR5 -0.01 dB -6.26 dB 3:27 09-Tomorrow On My Shoulders
DR6 -0.01 dB -7.09 dB 4:22 10-Our Love
DR5 -0.01 dB -6.28 dB 4:16 11-History
DR5 -0.01 dB -6.43 dB 3:38 12-I Want You
DR6 -0.01 dB -6.92 dB 4:18 13-Yes I'm Ready
--------------------------------------------------------------------------------

Number of tracks: 13
Official DR value: DR6

Samplerate: 44100 Hz
Channels: 2
Bits per sample: 16
Bitrate: 954 kbps
Codec: FLAC
================================================================================



5% WinRar Recovery
If you experience any problems or broken links, PLEASE SEND PM to flac jacket.
Oboom