¬ход в свой аккаунт

»ли войдите через соц. сети

Tori Amos - The Original Bootlegs (2005) 12CD / RE-UP


Tori Amos - The Original Bootlegs (2005) 12CD
EAC | WV | Image (Cue&Log) ~ 3.54 Gb (incl 5%) | Mp3 (CBR320) ~ 1.65 Gb (incl 5%) | Scans included
Genre: Piano Rock, Alternative Pop Rock, Singer/songwriter | Label: Epic/Sony BMG | # 8 2796 97780 2 | Time: 11:13:59

вАЬ The Original Bootlegs is a series of six Tori Amos live albums, recorded during the Original Sinsuality and Summer of Sin tours, both of which were in support of her 2005 album, The Beekeeper. Double-disc sets were released for each complete show, which were initially released in pairs and sold individually or as a pair. On December 6, 2005 a cardboard-housed compilation of all six concerts was released, titled The Original Bootlegs. вАЭ


вАЬ Tori Amos' following seems as fervent as it is unlikely, a forceful fusion of oft-mocked '70s singer-songwriter conceits with a progressive bent in an era dominated by alt вАШn' snark, yet channeled through her own, typically heart-on-the-sleeve sense of emotional dramatics. This 12-CD chronicle of 2005 live stands in Chicago, Denver, L.A., the UK and Boston may not be as expansive as Pearl Jam's 72-volume marathon documentation of their Binaural tour, but Amos does indeed share the latter's mercurial live ethos and penchant for inventive, often unexpected covers. Each concert here begins with a take on The Beekeeper's mood-setting "Original Sensuality," then spins off in its own peculiar, emotionally-charged course through the full range of Amos' canon. But it's the set's documentation of her intriguing reworking of others' songs that's just as appealing, notably, Jim Croce's "Operator" or a tribute to Amos' inspirations via Joni Mitchell's "Circle Game" or left-field, if surprisingly effective versions of Flock of Seagull's "I Ran" and Livin' On a Prayer" by Bon Jovi from Denver and L.A. respectively. With a crowd-pleasing rapport that's evident throughout, she treats audiences in her adopted UK home to takes on local heroes from George Michael ("Father Figure") to Oasis ("Don't Look Back in Anger") and pumps up Boston's hometown pride with a Kate Bush-esque spin on Aerosmith's "Dream On," as well as slow-burn turns through Bonnie Tyler's "Total Eclipse of the Heart" and the Stones' "Angie."

Review by Jerry McCulley
вАЭ







Tracklist:

Auditorium Theatre, Chicago, Il, 4 15 05

CD1:

01. Original Sinsuality [3:53]
02. Father Lucifer [5:34]
03. Mother Revolution [5:26]
04. Yes, Anastasia [7:12]
05. Apollo's Frock [5:47]
06. Parasol [4:48]
07. Mother [7:28]
08. Operator [6:19]
09. Circle Game [6:39]
10. Cars and Guitars [4:37]

CD2:

01. Space Dog [7:41]
02. Marianne [5:18]
03. Barons of Suburbia [6:07]
04. Cool on Your Island [5:45]
05. The Beekeeper [10:19]
06. Honey [4:44]
07. Sweet the Sting [5:56]
08. Cloud on My Tongue [6:57]
09. Ribbons Undone [7:22]

---------------------------------------------------------------------


Royce Hall Auditorium, Los Angeles, Ca, 4 25 05

CD1:

01. Original Sinsuality [3:55]
02. Silent All These Years [5:47]
03. Parasol [5:35]
04. Doughnut Song [7:00]
05. Yes, Anastasia [5:54]
06. Jamaica Inn [6:34]
07. Cool on Your Island [5:21]
08. Livin' on a Prayer [5:53]
09. All Through the Night [4:30]

CD2:

01. Barons of Suburbia [6:18]
02. Take to the Sky [6:19]
03. Cloud on My Tongue [6:33]
04. Ruby Through the Looking-Glass [6:45]
05. The Beekeeper [10:56]
06. Tear in Your Hand [6:26]
07. Toast [5:12]
08. Sweet the Sting [5:31]
09. Twinkle [4:05]

---------------------------------------------------------------------


Paramount Theatre, Denver, Co, 4 19 05

CD1:

01. Original Sinsuality [3:31]
02. Little Amsterdam [6:58]
03. Icicle [6:35]
04. Your Cloud [5:58]
05. Jamaica Inn [6:23]
06. Father Lucifer [5:07]
07. Cool on Your Island [5:31]
08. I Ran [5:32]
09. Suzanne [6:49]

CD2:

01. The Power of Orange Knickers [4:21]
02. Cloud on My Tongue [6:45]
03. Space Dog [8:08]
04. Parasol [4:50]
05. Carbon [6:18]
06. The Beekeeper [11:10]
07. Leather [5:06]
08. Putting the Damage on [6:42]

---------------------------------------------------------------------


Manchester Apollo, Manchester, UK, 6 5 05

CD1:

01. Original Sinsuality [4:05]
02. Little Amsterdam [7:33]
03. Leather [4:40]
04. Beauty Queen [1:42]
05. Horses [4:45]
06. Liquid Diamonds [8:43]
07. Suede [7:59]
08. Strange [4:35]
09. Don't Look Back in Anger [6:13]
10. My Favorite Things [3:26]

CD2:

01. Winter [7:25]
02. Carbon [5:32]
03. Ribbons Undone [7:07]
04. Spring Haze [8:26]
05. The Beekeeper [10:33]
06. Not the Red Baron [3:39]
07. Never Seen Blue [7:02]
08. Sweet the Sting [5:56]

---------------------------------------------------------------------


Hammersmith Apollo, London, UK, 6 4 05

CD1:

01. Original Sinsuality [4:17]
02. Father Lucifer [5:15]
03. Icicle [5:42]
04. Mother Revolution (with the Gospel Singers) [7:32]
05. Take to the Sky [5:33]
06. Yes, Anastasia [5:36]
07. Bells for Her [6:44]
08. Father Figure [6:20]
09. Like a Prayer [5:08]

CD2:

01. Winter [7:24]
02. Cooling [5:26]
03. Jamaica Inn [6:44]
04. Witness (with the Gospel Singers) [6:55]
05. The Beekeeper [10:50]
06. Sweet the Sting (with the Gospel Singers) [6:21]
07. Rattlesnakes [5:56]
08. Hoochie Woman (with the Gospel Singers) [3:39]
09. Hey Jupiter [7:12]

---------------------------------------------------------------------


Bank of America Pavilion Boston, MA 8/21/05

CD1:

01. Original Sinsuality [4:29]
02. Caught a Lite Sneeze [7:14]
03. Amber Waves [6:27]
04. Martha's Foolish Ginger [5:14]
05. Winter [7:27]
06. Pancake [5:27]
07. Cool on Your Island [5:30]
08. Total Eclipse of the Heart [7:58]
09. Angie [6:23]

CD2:

01. Barons of Suburbia [8:32]
02. Garlands [8:44]
03. Tear in Your Hand [9:02]
04. The Beekeeper [13:00]
05. Dream on [6:36]
06. Pretty Good Year [5:23]
07. Playboy Mommy [5:29]
08. 1,000 Oceans [6:47]


Exact Audio Copy V0.99 prebeta 3 from 28. July 2007

EAC extraction logfile from 20. February 2008, 17:38

Tori Amos / Auditorium Theatre, Chicago, Il, 4 15 05 (CD1)

Used drive : _NEC DVD_RW ND-3550A Adapter: 1 ID: 0

Read mode : Secure
Utilize accurate stream : Yes
Defeat audio cache : Yes
Make use of C2 pointers : No

Read offset correction : 48
Overread into Lead-In and Lead-Out : No
Fill up missing offset samples with silence : Yes
Delete leading and trailing silent blocks : No
Null samples used in CRC calculations : Yes
Used interface : Installed external ASPI interface

Used output format : Monkey's Audio Lossless Encoder v3.99 DLL
Sample format : Normal Lossless Compression


TOC of the extracted CD

Track | Start | Length | Start sector | End sector
---------------------------------------------------------
1 | 0:00.00 | 3:53.22 | 0 | 17496
2 | 3:53.22 | 5:34.33 | 17497 | 42579
3 | 9:27.55 | 5:25.62 | 42580 | 67016
4 | 14:53.42 | 7:11.61 | 67017 | 99402
5 | 22:05.28 | 5:46.71 | 99403 | 125423
6 | 27:52.24 | 4:48.10 | 125424 | 147033
7 | 32:40.34 | 7:27.42 | 147034 | 180600
8 | 40:08.01 | 6:19.10 | 180601 | 209035
9 | 46:27.11 | 6:38.70 | 209036 | 238955
10 | 53:06.06 | 4:36.49 | 238956 | 259704


Range status and errors

Selected range

Filename E:!tracker!2releaseTori Amos2005 - (Live) - The Original BootlegsAlbum 1CD1Tori Amos - Auditorium Theatre Chicago Il 4 15 05 (CD1).ape

Peak level 89.2 %
Range quality 100.0 %
Test CRC AA4F5A45
Copy CRC AA4F5A45
Copy OK

No errors occurred


AccurateRip summary

Track 1 accurately ripped (confidence 2) [6CB70375]
Track 2 accurately ripped (confidence 3) [9EA27656]
Track 3 accurately ripped (confidence 3) [812D66BD]
Track 4 accurately ripped (confidence 3) [93024D2D]
Track 5 accurately ripped (confidence 3) [FF9CE921]
Track 6 accurately ripped (confidence 3) [09D87AC3]
Track 7 accurately ripped (confidence 3) [C01C4CB9]
Track 8 accurately ripped (confidence 2) [9C3B8B3B]
Track 9 accurately ripped (confidence 3) [2031C2E2]
Track 10 accurately ripped (confidence 3) [A72381F7]

All tracks accurately ripped

End of status report

foobar2000 1.3.8 / Dynamic Range Meter 1.1.1
log date: 2015-05-15 17:58:52

--------------------------------------------------------------------------------
Analyzed: Tori Amos / Auditorium Theatre, Chicago, Il, 4 15 05 (CD1)
--------------------------------------------------------------------------------

DR Peak RMS Duration Track
--------------------------------------------------------------------------------
DR9 -4.11 dB -18.74 dB 3:53 01-Original Sinsuality
DR11 -3.29 dB -17.80 dB 5:34 02-Father Lucifer
DR10 -3.92 dB -18.29 dB 5:26 03-Mother Revolution
DR12 -0.99 dB -18.81 dB 7:12 04-Yes, Anastasia
DR12 -3.94 dB -19.16 dB 5:47 05-Apollo's Frock
DR12 -3.43 dB -18.50 dB 4:48 06-Parasol
DR10 -2.83 dB -16.83 dB 7:28 07-Mother
DR13 -4.37 dB -21.22 dB 6:19 08-Operator
DR14 -2.96 dB -20.75 dB 6:39 09-Circle Game
DR11 -4.89 dB -19.28 dB 4:37 10-Cars and Guitars
--------------------------------------------------------------------------------

Number of tracks: 10
Official DR value: DR12

Samplerate: 44100 Hz
Channels: 2
Bits per sample: 16
Bitrate: 644 kbps
Codec: WavPack
================================================================================

Exact Audio Copy V0.99 prebeta 3 from 28. July 2007

EAC extraction logfile from 20. February 2008, 20:04

Tori Amos / Auditorium Theatre, Chicago, Il, 4 15 05 (CD2)

Used drive : _NEC DVD_RW ND-3550A Adapter: 1 ID: 0

Read mode : Secure
Utilize accurate stream : Yes
Defeat audio cache : Yes
Make use of C2 pointers : No

Read offset correction : 48
Overread into Lead-In and Lead-Out : No
Fill up missing offset samples with silence : Yes
Delete leading and trailing silent blocks : No
Null samples used in CRC calculations : Yes
Used interface : Installed external ASPI interface

Used output format : Monkey's Audio Lossless Encoder v3.99 DLL
Sample format : Normal Lossless Compression


TOC of the extracted CD

Track | Start | Length | Start sector | End sector
---------------------------------------------------------
1 | 0:00.00 | 7:41.07 | 0 | 34581
2 | 7:41.07 | 5:17.50 | 34582 | 58406
3 | 12:58.57 | 6:06.65 | 58407 | 85921
4 | 19:05.47 | 5:44.65 | 85922 | 111786
5 | 24:50.37 | 10:18.49 | 111787 | 158185
6 | 35:09.11 | 4:44.25 | 158186 | 179510
7 | 39:53.36 | 5:55.64 | 179511 | 206199
8 | 45:49.25 | 6:56.37 | 206200 | 237436
9 | 52:45.62 | 7:22.19 | 237437 | 270605


Range status and errors

Selected range

Filename E:!tracker!2releaseTori Amos2005 - (Live) - The Original BootlegsAlbum 1CD2Tori Amos - Auditorium Theatre Chicago Il 4 15 05 (CD2).ape

Peak level 100.0 %
Range quality 100.0 %
Test CRC F2B312B9
Copy CRC F2B312B9
Copy OK

No errors occurred


AccurateRip summary

Track 1 accurately ripped (confidence 2) [894AA1AA]
Track 2 accurately ripped (confidence 3) [0460C753]
Track 3 accurately ripped (confidence 3) [99A3632A]
Track 4 accurately ripped (confidence 3) [B69BAD2D]
Track 5 accurately ripped (confidence 3) [456F25A0]
Track 6 accurately ripped (confidence 3) [35B97F29]
Track 7 accurately ripped (confidence 3) [FB8AEB95]
Track 8 accurately ripped (confidence 2) [7995623F]
Track 9 accurately ripped (confidence 2) [2CC50D3D]

All tracks accurately ripped

End of status report

Exact Audio Copy V0.99 prebeta 3 from 28. July 2007

EAC extraction logfile from 20. February 2008, 20:04

Tori Amos / Auditorium Theatre, Chicago, Il, 4 15 05 (CD2)

Used drive : _NEC DVD_RW ND-3550A Adapter: 1 ID: 0

Read mode : Secure
Utilize accurate stream : Yes
Defeat audio cache : Yes
Make use of C2 pointers : No

Read offset correction : 48
Overread into Lead-In and Lead-Out : No
Fill up missing offset samples with silence : Yes
Delete leading and trailing silent blocks : No
Null samples used in CRC calculations : Yes
Used interface : Installed external ASPI interface

Used output format : Monkey's Audio Lossless Encoder v3.99 DLL
Sample format : Normal Lossless Compression


TOC of the extracted CD

Track | Start | Length | Start sector | End sector
---------------------------------------------------------
1 | 0:00.00 | 7:41.07 | 0 | 34581
2 | 7:41.07 | 5:17.50 | 34582 | 58406
3 | 12:58.57 | 6:06.65 | 58407 | 85921
4 | 19:05.47 | 5:44.65 | 85922 | 111786
5 | 24:50.37 | 10:18.49 | 111787 | 158185
6 | 35:09.11 | 4:44.25 | 158186 | 179510
7 | 39:53.36 | 5:55.64 | 179511 | 206199
8 | 45:49.25 | 6:56.37 | 206200 | 237436
9 | 52:45.62 | 7:22.19 | 237437 | 270605


Range status and errors

Selected range

Filename E:!tracker!2releaseTori Amos2005 - (Live) - The Original BootlegsAlbum 1CD2Tori Amos - Auditorium Theatre Chicago Il 4 15 05 (CD2).ape

Peak level 100.0 %
Range quality 100.0 %
Test CRC F2B312B9
Copy CRC F2B312B9
Copy OK

No errors occurred


AccurateRip summary

Track 1 accurately ripped (confidence 2) [894AA1AA]
Track 2 accurately ripped (confidence 3) [0460C753]
Track 3 accurately ripped (confidence 3) [99A3632A]
Track 4 accurately ripped (confidence 3) [B69BAD2D]
Track 5 accurately ripped (confidence 3) [456F25A0]
Track 6 accurately ripped (confidence 3) [35B97F29]
Track 7 accurately ripped (confidence 3) [FB8AEB95]
Track 8 accurately ripped (confidence 2) [7995623F]
Track 9 accurately ripped (confidence 2) [2CC50D3D]

All tracks accurately ripped

End of status report


Exact Audio Copy V0.99 prebeta 3 from 28. July 2007

EAC extraction logfile from 12. February 2008, 8:12

Tori Amos / Royce Hall Auditorium, Los Angeles, Ca, 4 25 05 (CD1)

Used drive : _NEC DVD_RW ND-3550A Adapter: 1 ID: 0

Read mode : Secure
Utilize accurate stream : Yes
Defeat audio cache : Yes
Make use of C2 pointers : No

Read offset correction : 48
Overread into Lead-In and Lead-Out : No
Fill up missing offset samples with silence : Yes
Delete leading and trailing silent blocks : No
Null samples used in CRC calculations : Yes
Used interface : Installed external ASPI interface

Used output format : Monkey's Audio Lossless Encoder v3.99 DLL
Sample format : Normal Lossless Compression


TOC of the extracted CD

Track | Start | Length | Start sector | End sector
---------------------------------------------------------
1 | 0:00.00 | 3:55.11 | 0 | 17635
2 | 3:55.11 | 5:46.55 | 17636 | 43640
3 | 9:41.66 | 5:34.62 | 43641 | 68752
4 | 15:16.53 | 7:00.33 | 68753 | 100285
5 | 22:17.11 | 5:54.41 | 100286 | 126876
6 | 28:11.52 | 6:34.07 | 126877 | 156433
7 | 34:45.59 | 5:21.14 | 156434 | 180522
8 | 40:06.73 | 5:52.62 | 180523 | 206984
9 | 45:59.60 | 4:30.50 | 206985 | 227284


Range status and errors

Selected range

Filename E:!tracker!2releaseTori Amos2005 - (Live) - The Original BootlegsAlbum 2CD1Tori Amos - Royce Hall Auditorium Los Angeles Ca 4 25 05 (CD1).ape

Peak level 99.3 %
Range quality 100.0 %
Test CRC 9D9FF3B3
Copy CRC 9D9FF3B3
Copy OK

No errors occurred


AccurateRip summary

Track 1 accurately ripped (confidence 2) [FDF9F7F9]
Track 2 accurately ripped (confidence 3) [E105D67D]
Track 3 accurately ripped (confidence 3) [D9D2B138]
Track 4 accurately ripped (confidence 3) [008E4BE6]
Track 5 accurately ripped (confidence 3) [18C40A6E]
Track 6 accurately ripped (confidence 3) [5846DAD5]
Track 7 accurately ripped (confidence 3) [0C9C19CF]
Track 8 accurately ripped (confidence 3) [64B638A9]
Track 9 accurately ripped (confidence 3) [BC39E95B]

All tracks accurately ripped

End of status report

foobar2000 1.3.8 / Dynamic Range Meter 1.1.1
log date: 2015-05-15 18:27:42

--------------------------------------------------------------------------------
Analyzed: Tori Amos / Royce Hall Auditorium, Los Angeles, Ca, 4 25 05 (CD1)
--------------------------------------------------------------------------------

DR Peak RMS Duration Track
--------------------------------------------------------------------------------
DR9 -0.06 dB -13.55 dB 3:55 01-Original Sinsuality
DR11 -1.14 dB -15.78 dB 5:47 02-Silent All These Years
DR12 -0.21 dB -16.26 dB 5:35 03-Parasol
DR11 -0.16 dB -14.90 dB 7:00 04-Doughnut Song
DR12 -0.79 dB -16.10 dB 5:55 05-Yes, Anastasia
DR12 -1.01 dB -17.04 dB 6:34 06-Jamaica Inn
DR13 -3.17 dB -18.53 dB 5:21 07-Cool on Your Island
DR11 -2.91 dB -17.87 dB 5:53 08-Livin' on a Prayer
DR10 -1.88 dB -15.76 dB 4:31 09-All Through the Night
--------------------------------------------------------------------------------

Number of tracks: 9
Official DR value: DR11

Samplerate: 44100 Hz
Channels: 2
Bits per sample: 16
Bitrate: 669 kbps
Codec: WavPack
================================================================================

Exact Audio Copy V0.99 prebeta 3 from 28. July 2007

EAC extraction logfile from 12. February 2008, 10:39

Tori Amos / Royce Hall Auditorium, Los Angeles, Ca, 4 25 05 (CD2)

Used drive : _NEC DVD_RW ND-3550A Adapter: 1 ID: 0

Read mode : Secure
Utilize accurate stream : Yes
Defeat audio cache : Yes
Make use of C2 pointers : No

Read offset correction : 48
Overread into Lead-In and Lead-Out : No
Fill up missing offset samples with silence : Yes
Delete leading and trailing silent blocks : No
Null samples used in CRC calculations : Yes
Used interface : Installed external ASPI interface

Used output format : Monkey's Audio Lossless Encoder v3.99 DLL
Sample format : Normal Lossless Compression


TOC of the extracted CD

Track | Start | Length | Start sector | End sector
---------------------------------------------------------
1 | 0:00.00 | 6:17.62 | 0 | 28336
2 | 6:17.62 | 6:19.10 | 28337 | 56771
3 | 12:36.72 | 6:33.05 | 56772 | 86251
4 | 19:10.02 | 6:45.31 | 86252 | 116657
5 | 25:55.33 | 10:56.21 | 116658 | 165878
6 | 36:51.54 | 6:26.21 | 165879 | 194849
7 | 43:18.00 | 5:12.19 | 194850 | 218268
8 | 48:30.19 | 5:30.69 | 218269 | 243087
9 | 54:01.13 | 4:05.32 | 243088 | 261494


Range status and errors

Selected range

Filename E:!tracker!2releaseTori Amos2005 - (Live) - The Original BootlegsAlbum 2CD2Tori Amos - Royce Hall Auditorium Los Angeles Ca 4 25 05 (CD2).ape

Peak level 100.0 %
Range quality 100.0 %
Test CRC F348A301
Copy CRC F348A301
Copy OK

No errors occurred


AccurateRip summary

Track 1 cannot be verified as accurate (confidence 6) [73F9E1C0], AccurateRip returned [089145C7]
Track 2 cannot be verified as accurate (confidence 6) [560892E2], AccurateRip returned [B277859B]
Track 3 cannot be verified as accurate (confidence 6) [DC40382B], AccurateRip returned [4327E9AC]
Track 4 cannot be verified as accurate (confidence 6) [D849258C], AccurateRip returned [4F32A928]
Track 5 cannot be verified as accurate (confidence 6) [30AB7177], AccurateRip returned [99310188]
Track 6 cannot be verified as accurate (confidence 6) [14590448], AccurateRip returned [30DE11D1]
Track 7 cannot be verified as accurate (confidence 6) [298C1A4C], AccurateRip returned [07F4E559]
Track 8 cannot be verified as accurate (confidence 6) [9DE61474], AccurateRip returned [65669FFD]
Track 9 cannot be verified as accurate (confidence 6) [F9E1CE79], AccurateRip returned [7535C71C]

No tracks could be verified as accurate
You may have a different pressing from the one(s) in the database

End of status report

foobar2000 1.3.8 / Dynamic Range Meter 1.1.1
log date: 2015-05-15 18:29:22

--------------------------------------------------------------------------------
Analyzed: Tori Amos / Royce Hall Auditorium, Los Angeles, Ca, 4 25 05 (CD2)
--------------------------------------------------------------------------------

DR Peak RMS Duration Track
--------------------------------------------------------------------------------
DR11 0.00 dB -14.44 dB 6:18 01-Barons of Suburbia
DR12 -0.65 dB -15.98 dB 6:19 02-Take to the Sky
DR13 0.00 dB -16.27 dB 6:33 03-Cloud on My Tongue
DR12 -0.87 dB -16.21 dB 6:45 04-Ruby Through the Looking-Glass
DR10 -1.11 dB -15.56 dB 10:56 05-The Beekeeper
DR13 -0.16 dB -16.30 dB 6:26 06-Tear in Your Hand
DR13 0.00 dB -18.27 dB 5:12 07-Toast
DR13 -1.45 dB -17.07 dB 5:31 08-Sweet the Sting
DR12 -3.27 dB -18.56 dB 4:05 09-Twinkle
--------------------------------------------------------------------------------

Number of tracks: 9
Official DR value: DR12

Samplerate: 44100 Hz
Channels: 2
Bits per sample: 16
Bitrate: 661 kbps
Codec: WavPack
================================================================================


Exact Audio Copy V0.99 prebeta 3 from 28. July 2007

EAC extraction logfile from 13. February 2008, 21:23

Tori Amos / Paramount Theatre, Denver, Co, 4 19 05 (CD1)

Used drive : _NEC DVD_RW ND-3550A Adapter: 1 ID: 0

Read mode : Secure
Utilize accurate stream : Yes
Defeat audio cache : Yes
Make use of C2 pointers : No

Read offset correction : 48
Overread into Lead-In and Lead-Out : No
Fill up missing offset samples with silence : Yes
Delete leading and trailing silent blocks : No
Null samples used in CRC calculations : Yes
Used interface : Installed external ASPI interface

Used output format : Monkey's Audio Lossless Encoder v3.99 DLL
Sample format : Normal Lossless Compression


TOC of the extracted CD

Track | Start | Length | Start sector | End sector
---------------------------------------------------------
1 | 0:00.00 | 3:31.29 | 0 | 15853
2 | 3:31.29 | 6:58.25 | 15854 | 47228
3 | 10:29.54 | 6:35.50 | 47229 | 76903
4 | 17:05.29 | 5:57.58 | 76904 | 103736
5 | 23:03.12 | 6:23.17 | 103737 | 132478
6 | 29:26.29 | 5:06.65 | 132479 | 155493
7 | 34:33.19 | 5:31.16 | 155494 | 180334
8 | 40:04.35 | 5:31.71 | 180335 | 205230
9 | 45:36.31 | 6:49.11 | 205231 | 235916


Range status and errors

Selected range

Filename E:!tracker!2releaseTori Amos2005 - (Live) - The Original BootlegsAlbum 3CD1Tori Amos - Paramount Theatre Denver Co 4 19 05 (CD1).ape

Peak level 96.5 %
Range quality 100.0 %
Test CRC 32C1B01D
Copy CRC 32C1B01D
Copy OK

No errors occurred


AccurateRip summary

Track 1 accurately ripped (confidence 2) [D220E578]
Track 2 accurately ripped (confidence 2) [98D30BAD]
Track 3 accurately ripped (confidence 2) [FCE6D55D]
Track 4 accurately ripped (confidence 2) [98566FD8]
Track 5 accurately ripped (confidence 2) [CC83E1B3]
Track 6 accurately ripped (confidence 2) [F4D7D4FD]
Track 7 accurately ripped (confidence 2) [256DF6D4]
Track 8 accurately ripped (confidence 2) [2B26261D]
Track 9 accurately ripped (confidence 2) [A9C0D77F]

All tracks accurately ripped

End of status report

Exact Audio Copy V0.99 prebeta 3 from 28. July 2007

EAC extraction logfile from 13. February 2008, 21:23

Tori Amos / Paramount Theatre, Denver, Co, 4 19 05 (CD1)

Used drive : _NEC DVD_RW ND-3550A Adapter: 1 ID: 0

Read mode : Secure
Utilize accurate stream : Yes
Defeat audio cache : Yes
Make use of C2 pointers : No

Read offset correction : 48
Overread into Lead-In and Lead-Out : No
Fill up missing offset samples with silence : Yes
Delete leading and trailing silent blocks : No
Null samples used in CRC calculations : Yes
Used interface : Installed external ASPI interface

Used output format : Monkey's Audio Lossless Encoder v3.99 DLL
Sample format : Normal Lossless Compression


TOC of the extracted CD

Track | Start | Length | Start sector | End sector
---------------------------------------------------------
1 | 0:00.00 | 3:31.29 | 0 | 15853
2 | 3:31.29 | 6:58.25 | 15854 | 47228
3 | 10:29.54 | 6:35.50 | 47229 | 76903
4 | 17:05.29 | 5:57.58 | 76904 | 103736
5 | 23:03.12 | 6:23.17 | 103737 | 132478
6 | 29:26.29 | 5:06.65 | 132479 | 155493
7 | 34:33.19 | 5:31.16 | 155494 | 180334
8 | 40:04.35 | 5:31.71 | 180335 | 205230
9 | 45:36.31 | 6:49.11 | 205231 | 235916


Range status and errors

Selected range

Filename E:!tracker!2releaseTori Amos2005 - (Live) - The Original BootlegsAlbum 3CD1Tori Amos - Paramount Theatre Denver Co 4 19 05 (CD1).ape

Peak level 96.5 %
Range quality 100.0 %
Test CRC 32C1B01D
Copy CRC 32C1B01D
Copy OK

No errors occurred


AccurateRip summary

Track 1 accurately ripped (confidence 2) [D220E578]
Track 2 accurately ripped (confidence 2) [98D30BAD]
Track 3 accurately ripped (confidence 2) [FCE6D55D]
Track 4 accurately ripped (confidence 2) [98566FD8]
Track 5 accurately ripped (confidence 2) [CC83E1B3]
Track 6 accurately ripped (confidence 2) [F4D7D4FD]
Track 7 accurately ripped (confidence 2) [256DF6D4]
Track 8 accurately ripped (confidence 2) [2B26261D]
Track 9 accurately ripped (confidence 2) [A9C0D77F]

All tracks accurately ripped

End of status report

Exact Audio Copy V0.99 prebeta 3 from 28. July 2007

EAC extraction logfile from 13. February 2008, 23:44

Tori Amos / Paramount Theatre, Denver, Co, 4 19 05 (CD2)

Used drive : _NEC DVD_RW ND-3550A Adapter: 1 ID: 0

Read mode : Secure
Utilize accurate stream : Yes
Defeat audio cache : Yes
Make use of C2 pointers : No

Read offset correction : 48
Overread into Lead-In and Lead-Out : No
Fill up missing offset samples with silence : Yes
Delete leading and trailing silent blocks : No
Null samples used in CRC calculations : Yes
Used interface : Installed external ASPI interface

Used output format : Monkey's Audio Lossless Encoder v3.99 DLL
Sample format : Normal Lossless Compression


TOC of the extracted CD

Track | Start | Length | Start sector | End sector
---------------------------------------------------------
1 | 0:00.00 | 4:21.27 | 0 | 19601
2 | 4:21.27 | 6:45.03 | 19602 | 49979
3 | 11:06.30 | 8:07.68 | 49980 | 86572
4 | 19:14.23 | 4:49.59 | 86573 | 108306
5 | 24:04.07 | 6:18.36 | 108307 | 136692
6 | 30:22.43 | 11:10.38 | 136693 | 186980
7 | 41:33.06 | 5:06.23 | 186981 | 209953
8 | 46:39.29 | 6:41.72 | 209954 | 240100


Range status and errors

Selected range

Filename E:!tracker!2releaseTori Amos2005 - (Live) - The Original BootlegsAlbum 3CD2Tori Amos - Paramount Theatre Denver Co 4 19 05 (CD2).ape

Peak level 100.0 %
Range quality 100.0 %
Test CRC D60B16D4
Copy CRC D60B16D4
Copy OK

No errors occurred


AccurateRip summary

Track 1 accurately ripped (confidence 2) [B238380C]
Track 2 accurately ripped (confidence 2) [25BEE2C4]
Track 3 accurately ripped (confidence 2) [46D324F5]
Track 4 accurately ripped (confidence 2) [C3816293]
Track 5 accurately ripped (confidence 2) [FA532326]
Track 6 accurately ripped (confidence 2) [B097C805]
Track 7 accurately ripped (confidence 2) [185C4DDB]
Track 8 accurately ripped (confidence 2) [2A54654A]

All tracks accurately ripped

End of status report

foobar2000 1.3.8 / Dynamic Range Meter 1.1.1
log date: 2015-05-15 18:26:13

--------------------------------------------------------------------------------
Analyzed: Tori Amos / Paramount Theatre, Denver, Co, 4 19 05 (CD2)
--------------------------------------------------------------------------------

DR Peak RMS Duration Track
--------------------------------------------------------------------------------
DR12 0.00 dB -16.67 dB 4:21 01-The Power of Orange Knickers
DR12 -2.50 dB -17.40 dB 6:45 02-Cloud on My Tongue
DR10 0.00 dB -13.91 dB 8:08 03-Space Dog
DR11 -2.30 dB -17.21 dB 4:50 04-Parasol
DR11 0.00 dB -15.38 dB 6:18 05-Carbon
DR13 0.00 dB -17.13 dB 11:11 06-The Beekeeper
DR11 -1.38 dB -16.78 dB 5:06 07-Leather
DR11 0.00 dB -17.14 dB 6:42 08-Putting the Damage on
--------------------------------------------------------------------------------

Number of tracks: 8
Official DR value: DR11

Samplerate: 44100 Hz
Channels: 2
Bits per sample: 16
Bitrate: 694 kbps
Codec: WavPack
================================================================================


Exact Audio Copy V0.99 prebeta 3 from 28. July 2007

EAC extraction logfile from 14. February 2008, 9:58

Tori Amos / Manchester Apollo, Manchester, UK, 6 5 05 (CD1)

Used drive : _NEC DVD_RW ND-3550A Adapter: 1 ID: 0

Read mode : Secure
Utilize accurate stream : Yes
Defeat audio cache : Yes
Make use of C2 pointers : No

Read offset correction : 48
Overread into Lead-In and Lead-Out : No
Fill up missing offset samples with silence : Yes
Delete leading and trailing silent blocks : No
Null samples used in CRC calculations : Yes
Used interface : Installed external ASPI interface

Used output format : Monkey's Audio Lossless Encoder v3.99 DLL
Sample format : Normal Lossless Compression


TOC of the extracted CD

Track | Start | Length | Start sector | End sector
---------------------------------------------------------
1 | 0:00.00 | 4:05.15 | 0 | 18389
2 | 4:05.15 | 7:32.52 | 18390 | 52341
3 | 11:37.67 | 4:40.02 | 52342 | 73343
4 | 16:17.69 | 1:42.12 | 73344 | 81005
5 | 18:00.06 | 4:45.39 | 81006 | 102419
6 | 22:45.45 | 8:42.55 | 102420 | 141624
7 | 31:28.25 | 7:59.06 | 141625 | 177555
8 | 39:27.31 | 4:35.50 | 177556 | 198230
9 | 44:03.06 | 6:13.07 | 198231 | 226212
10 | 50:16.13 | 3:25.72 | 226213 | 241659


Range status and errors

Selected range

Filename E:!tracker!2releaseTori Amos2005 - (Live) - The Original BootlegsAlbum 4CD1Tori Amos - Manchester Apollo Manchester UK 6 5 05 (CD1).ape

Peak level 85.1 %
Range quality 100.0 %
Test CRC 30D05EBC
Copy CRC 30D05EBC
Copy OK

No errors occurred


AccurateRip summary

Track 1 accurately ripped (confidence 2) [2BA2D39B]
Track 2 accurately ripped (confidence 2) [F0603E18]
Track 3 accurately ripped (confidence 2) [AF85606A]
Track 4 accurately ripped (confidence 2) [0BEAC14E]
Track 5 accurately ripped (confidence 2) [6854F56B]
Track 6 accurately ripped (confidence 2) [8C1C97F3]
Track 7 accurately ripped (confidence 2) [C729AC5F]
Track 8 accurately ripped (confidence 2) [49265878]
Track 9 accurately ripped (confidence 2) [996A5473]
Track 10 accurately ripped (confidence 2) [902AB251]

All tracks accurately ripped

End of status report

Exact Audio Copy V0.99 prebeta 3 from 28. July 2007

EAC extraction logfile from 14. February 2008, 9:58

Tori Amos / Manchester Apollo, Manchester, UK, 6 5 05 (CD1)

Used drive : _NEC DVD_RW ND-3550A Adapter: 1 ID: 0

Read mode : Secure
Utilize accurate stream : Yes
Defeat audio cache : Yes
Make use of C2 pointers : No

Read offset correction : 48
Overread into Lead-In and Lead-Out : No
Fill up missing offset samples with silence : Yes
Delete leading and trailing silent blocks : No
Null samples used in CRC calculations : Yes
Used interface : Installed external ASPI interface

Used output format : Monkey's Audio Lossless Encoder v3.99 DLL
Sample format : Normal Lossless Compression


TOC of the extracted CD

Track | Start | Length | Start sector | End sector
---------------------------------------------------------
1 | 0:00.00 | 4:05.15 | 0 | 18389
2 | 4:05.15 | 7:32.52 | 18390 | 52341
3 | 11:37.67 | 4:40.02 | 52342 | 73343
4 | 16:17.69 | 1:42.12 | 73344 | 81005
5 | 18:00.06 | 4:45.39 | 81006 | 102419
6 | 22:45.45 | 8:42.55 | 102420 | 141624
7 | 31:28.25 | 7:59.06 | 141625 | 177555
8 | 39:27.31 | 4:35.50 | 177556 | 198230
9 | 44:03.06 | 6:13.07 | 198231 | 226212
10 | 50:16.13 | 3:25.72 | 226213 | 241659


Range status and errors

Selected range

Filename E:!tracker!2releaseTori Amos2005 - (Live) - The Original BootlegsAlbum 4CD1Tori Amos - Manchester Apollo Manchester UK 6 5 05 (CD1).ape

Peak level 85.1 %
Range quality 100.0 %
Test CRC 30D05EBC
Copy CRC 30D05EBC
Copy OK

No errors occurred


AccurateRip summary

Track 1 accurately ripped (confidence 2) [2BA2D39B]
Track 2 accurately ripped (confidence 2) [F0603E18]
Track 3 accurately ripped (confidence 2) [AF85606A]
Track 4 accurately ripped (confidence 2) [0BEAC14E]
Track 5 accurately ripped (confidence 2) [6854F56B]
Track 6 accurately ripped (confidence 2) [8C1C97F3]
Track 7 accurately ripped (confidence 2) [C729AC5F]
Track 8 accurately ripped (confidence 2) [49265878]
Track 9 accurately ripped (confidence 2) [996A5473]
Track 10 accurately ripped (confidence 2) [902AB251]

All tracks accurately ripped

End of status report

Exact Audio Copy V0.99 prebeta 3 from 28. July 2007

EAC extraction logfile from 14. February 2008, 10:53

Tori Amos / Manchester Apollo, Manchester, UK, 6 5 05 (CD2)

Used drive : _NEC DVD_RW ND-3550A Adapter: 1 ID: 0

Read mode : Secure
Utilize accurate stream : Yes
Defeat audio cache : Yes
Make use of C2 pointers : No

Read offset correction : 48
Overread into Lead-In and Lead-Out : No
Fill up missing offset samples with silence : Yes
Delete leading and trailing silent blocks : No
Null samples used in CRC calculations : Yes
Used interface : Installed external ASPI interface

Used output format : Monkey's Audio Lossless Encoder v3.99 DLL
Sample format : Normal Lossless Compression


TOC of the extracted CD

Track | Start | Length | Start sector | End sector
---------------------------------------------------------
1 | 0:00.00 | 7:25.33 | 0 | 33407
2 | 7:25.33 | 5:31.58 | 33408 | 58290
3 | 12:57.16 | 7:07.25 | 58291 | 90340
4 | 20:04.41 | 8:26.01 | 90341 | 128291
5 | 28:30.42 | 10:33.26 | 128292 | 175792
6 | 39:03.68 | 3:38.69 | 175793 | 192211
7 | 42:42.62 | 7:02.03 | 192212 | 223864
8 | 49:44.65 | 5:56.48 | 223865 | 250612


Range status and errors

Selected range

Filename E:!tracker!2releaseTori Amos2005 - (Live) - The Original BootlegsAlbum 4CD2Tori Amos - Manchester Apollo Manchester UK 6 5 05 (CD2).ape

Peak level 80.6 %
Range quality 100.0 %
Test CRC 04EAB498
Copy CRC 04EAB498
Copy OK

No errors occurred


AccurateRip summary

Track 1 cannot be verified as accurate (confidence 7) [83EE485E], AccurateRip returned [544592C0]
Track 2 cannot be verified as accurate (confidence 7) [CC1FD81D], AccurateRip returned [A7801CF0]
Track 3 cannot be verified as accurate (confidence 7) [5458DAFB], AccurateRip returned [AB434317]
Track 4 cannot be verified as accurate (confidence 7) [67AE0BFE], AccurateRip returned [C71BB939]
Track 5 cannot be verified as accurate (confidence 7) [C7CA49BB], AccurateRip returned [AA3DB3CE]
Track 6 cannot be verified as accurate (confidence 7) [063603E9], AccurateRip returned [C368EC90]
Track 7 cannot be verified as accurate (confidence 7) [2D29CDD7], AccurateRip returned [3B6277DE]
Track 8 cannot be verified as accurate (confidence 7) [DD00192C], AccurateRip returned [D98C8887]

No tracks could be verified as accurate
You may have a different pressing from the one(s) in the database

End of status report

foobar2000 1.3.8 / Dynamic Range Meter 1.1.1
log date: 2015-05-15 19:44:51

--------------------------------------------------------------------------------
Analyzed: Tori Amos / Manchester Apollo, Manchester, UK, 6 5 05 (CD2)
--------------------------------------------------------------------------------

DR Peak RMS Duration Track
--------------------------------------------------------------------------------
DR9 -2.02 dB -13.81 dB 7:25 01-Winter
DR10 -2.30 dB -14.39 dB 5:32 02-Carbon
DR9 -2.13 dB -14.86 dB 7:07 03-Ribbons Undone
DR10 -1.87 dB -14.22 dB 8:26 04-Spring Haze
DR9 -3.21 dB -14.87 dB 10:33 05-The Beekeeper
DR8 -3.29 dB -14.74 dB 3:39 06-Not the Red Baron
DR9 -3.28 dB -16.30 dB 7:02 07-Never Seen Blue
DR11 -2.14 dB -15.23 dB 5:57 08-Sweet the Sting
--------------------------------------------------------------------------------

Number of tracks: 8
Official DR value: DR9

Samplerate: 44100 Hz
Channels: 2
Bits per sample: 16
Bitrate: 747 kbps
Codec: WavPack
================================================================================


Exact Audio Copy V0.99 prebeta 3 from 28. July 2007

EAC extraction logfile from 11. February 2008, 18:06

Tori Amos / Hammersmith Apollo, London, UK, 6 4 05 (CD1)

Used drive : _NEC DVD_RW ND-3550A Adapter: 1 ID: 0

Read mode : Secure
Utilize accurate stream : Yes
Defeat audio cache : Yes
Make use of C2 pointers : No

Read offset correction : 48
Overread into Lead-In and Lead-Out : No
Fill up missing offset samples with silence : Yes
Delete leading and trailing silent blocks : No
Null samples used in CRC calculations : Yes
Used interface : Installed external ASPI interface

Used output format : Monkey's Audio Lossless Encoder v3.99 DLL
Sample format : Normal Lossless Compression


TOC of the extracted CD

Track | Start | Length | Start sector | End sector
---------------------------------------------------------
1 | 0:00.00 | 4:17.27 | 0 | 19301
2 | 4:17.27 | 5:14.65 | 19302 | 42916
3 | 9:32.17 | 5:41.67 | 42917 | 68558
4 | 15:14.09 | 7:32.31 | 68559 | 102489
5 | 22:46.40 | 5:32.52 | 102490 | 127441
6 | 28:19.17 | 5:36.03 | 127442 | 152644
7 | 33:55.20 | 6:44.37 | 152645 | 182981
8 | 40:39.57 | 6:20.26 | 182982 | 211507
9 | 47:00.08 | 5:08.36 | 211508 | 234643


Range status and errors

Selected range

Filename E:!tracker!2releaseTori Amos2005 - (Live) - The Original BootlegsAlbum 5CD1Tori Amos - Hammersmith Apollo London UK 6 4 05 (CD1).ape

Peak level 99.5 %
Range quality 100.0 %
Test CRC 1527A98F
Copy CRC 1527A98F
Copy OK

No errors occurred


AccurateRip summary

Track 1 accurately ripped (confidence 2) [4219E0CA]
Track 2 accurately ripped (confidence 2) [7E88C261]
Track 3 accurately ripped (confidence 2) [69C177E4]
Track 4 accurately ripped (confidence 2) [AE29AE7B]
Track 5 accurately ripped (confidence 2) [61B809A8]
Track 6 accurately ripped (confidence 2) [65E6F5E3]
Track 7 accurately ripped (confidence 2) [B11522FD]
Track 8 accurately ripped (confidence 2) [2ABBCEDA]
Track 9 accurately ripped (confidence 2) [8F2275BF]

All tracks accurately ripped

End of status report

foobar2000 1.3.8 / Dynamic Range Meter 1.1.1
log date: 2015-05-15 19:38:45

--------------------------------------------------------------------------------
Analyzed: Tori Amos / Hammersmith Apollo, London, UK, 6 4 05 (CD1)
--------------------------------------------------------------------------------

DR Peak RMS Duration Track
--------------------------------------------------------------------------------
DR11 -5.62 dB -20.19 dB 4:17 01-Original Sinsuality
DR15 -2.87 dB -20.30 dB 5:15 02-Father Lucifer
DR14 -3.35 dB -21.12 dB 5:42 03-Icicle
DR12 -3.46 dB -19.07 dB 7:32 04-Mother Revolution (with the Gospel Singers)
DR16 -0.04 dB -19.66 dB 5:33 05-Take to the Sky
DR12 -4.19 dB -20.02 dB 5:36 06-Yes, Anastasia
DR12 -5.88 dB -21.05 dB 6:44 07-Bells for Her
DR13 -3.54 dB -20.92 dB 6:20 08-Father Figure
DR12 -3.10 dB -20.12 dB 5:08 09-Like a Prayer
--------------------------------------------------------------------------------

Number of tracks: 9
Official DR value: DR13

Samplerate: 44100 Hz
Channels: 2
Bits per sample: 16
Bitrate: 712 kbps
Codec: WavPack
================================================================================

Exact Audio Copy V0.99 prebeta 3 from 28. July 2007

EAC extraction logfile from 11. February 2008, 19:31

Tori Amos / Hammersmith Apollo, London, UK, 6 4 05 (CD2)

Used drive : _NEC DVD_RW ND-3550A Adapter: 1 ID: 0

Read mode : Secure
Utilize accurate stream : Yes
Defeat audio cache : Yes
Make use of C2 pointers : No

Read offset correction : 48
Overread into Lead-In and Lead-Out : No
Fill up missing offset samples with silence : Yes
Delete leading and trailing silent blocks : No
Null samples used in CRC calculations : Yes
Used interface : Installed external ASPI interface

Used output format : Monkey's Audio Lossless Encoder v3.99 DLL
Sample format : Normal Lossless Compression


TOC of the extracted CD

Track | Start | Length | Start sector | End sector
---------------------------------------------------------
1 | 0:00.00 | 7:24.46 | 0 | 33345
2 | 7:24.46 | 5:26.14 | 33346 | 57809
3 | 12:50.60 | 6:44.02 | 57810 | 88111
4 | 19:34.62 | 6:55.34 | 88112 | 119270
5 | 26:30.21 | 10:50.33 | 119271 | 168053
6 | 37:20.54 | 6:20.60 | 168054 | 196613
7 | 43:41.39 | 5:56.22 | 196614 | 223335
8 | 49:37.61 | 3:39.01 | 223336 | 239761
9 | 53:16.62 | 7:11.74 | 239762 | 272160


Range status and errors

Selected range

Filename E:!tracker!2releaseTori Amos2005 - (Live) - The Original BootlegsAlbum 5CD2Tori Amos - Hammersmith Apollo London UK 6 4 05 (CD2).ape

Peak level 75.2 %
Range quality 99.9 %
Test CRC 92EF5CED
Copy CRC 92EF5CED
Copy OK

No errors occurred


AccurateRip summary

Track 1 accurately ripped (confidence 3) [851FAC09]
Track 2 accurately ripped (confidence 2) [4925E40A]
Track 3 accurately ripped (confidence 2) [D06F36B5]
Track 4 accurately ripped (confidence 2) [9186C3EC]
Track 5 accurately ripped (confidence 2) [23FD9EFC]
Track 6 accurately ripped (confidence 2) [A5060D0E]
Track 7 accurately ripped (confidence 2) [9DCC78EE]
Track 8 accurately ripped (confidence 2) [F972357E]
Track 9 accurately ripped (confidence 2) [DBD201DE]

All tracks accurately ripped

End of status report

Exact Audio Copy V0.99 prebeta 3 from 28. July 2007

EAC extraction logfile from 11. February 2008, 19:31

Tori Amos / Hammersmith Apollo, London, UK, 6 4 05 (CD2)

Used drive : _NEC DVD_RW ND-3550A Adapter: 1 ID: 0

Read mode : Secure
Utilize accurate stream : Yes
Defeat audio cache : Yes
Make use of C2 pointers : No

Read offset correction : 48
Overread into Lead-In and Lead-Out : No
Fill up missing offset samples with silence : Yes
Delete leading and trailing silent blocks : No
Null samples used in CRC calculations : Yes
Used interface : Installed external ASPI interface

Used output format : Monkey's Audio Lossless Encoder v3.99 DLL
Sample format : Normal Lossless Compression


TOC of the extracted CD

Track | Start | Length | Start sector | End sector
---------------------------------------------------------
1 | 0:00.00 | 7:24.46 | 0 | 33345
2 | 7:24.46 | 5:26.14 | 33346 | 57809
3 | 12:50.60 | 6:44.02 | 57810 | 88111
4 | 19:34.62 | 6:55.34 | 88112 | 119270
5 | 26:30.21 | 10:50.33 | 119271 | 168053
6 | 37:20.54 | 6:20.60 | 168054 | 196613
7 | 43:41.39 | 5:56.22 | 196614 | 223335
8 | 49:37.61 | 3:39.01 | 223336 | 239761
9 | 53:16.62 | 7:11.74 | 239762 | 272160


Range status and errors

Selected range

Filename E:!tracker!2releaseTori Amos2005 - (Live) - The Original BootlegsAlbum 5CD2Tori Amos - Hammersmith Apollo London UK 6 4 05 (CD2).ape

Peak level 75.2 %
Range quality 99.9 %
Test CRC 92EF5CED
Copy CRC 92EF5CED
Copy OK

No errors occurred


AccurateRip summary

Track 1 accurately ripped (confidence 3) [851FAC09]
Track 2 accurately ripped (confidence 2) [4925E40A]
Track 3 accurately ripped (confidence 2) [D06F36B5]
Track 4 accurately ripped (confidence 2) [9186C3EC]
Track 5 accurately ripped (confidence 2) [23FD9EFC]
Track 6 accurately ripped (confidence 2) [A5060D0E]
Track 7 accurately ripped (confidence 2) [9DCC78EE]
Track 8 accurately ripped (confidence 2) [F972357E]
Track 9 accurately ripped (confidence 2) [DBD201DE]

All tracks accurately ripped

End of status report


Exact Audio Copy V0.99 prebeta 3 from 28. July 2007

EAC extraction logfile from 13. February 2008, 17:22

Tori Amos / B of A Pavilion, Boston, Ma, 8 21 05 (CD1)

Used drive : _NEC DVD_RW ND-3550A Adapter: 1 ID: 0

Read mode : Secure
Utilize accurate stream : Yes
Defeat audio cache : Yes
Make use of C2 pointers : No

Read offset correction : 48
Overread into Lead-In and Lead-Out : No
Fill up missing offset samples with silence : Yes
Delete leading and trailing silent blocks : No
Null samples used in CRC calculations : Yes
Used interface : Installed external ASPI interface

Used output format : Monkey's Audio Lossless Encoder v3.99 DLL
Sample format : Normal Lossless Compression


TOC of the extracted CD

Track | Start | Length | Start sector | End sector
---------------------------------------------------------
1 | 0:00.00 | 4:29.26 | 0 | 20200
2 | 4:29.26 | 7:13.56 | 20201 | 52731
3 | 11:43.07 | 6:26.63 | 52732 | 81744
4 | 18:09.70 | 5:13.56 | 81745 | 105275
5 | 23:23.51 | 7:27.24 | 105276 | 138824
6 | 30:51.00 | 5:27.16 | 138825 | 163365
7 | 36:18.16 | 5:30.49 | 163366 | 188164
8 | 41:48.65 | 7:57.51 | 188165 | 223990
9 | 49:46.41 | 6:23.49 | 223991 | 252764


Range status and errors

Selected range

Filename E:!tracker!2releaseTori Amos2005 - (Live) - The Original BootlegsAlbum 6CD1Tori Amos - B of A Pavilion Boston Ma 8 21 05 (CD1).ape

Peak level 100.0 %
Range quality 100.0 %
Test CRC 50D9F2C1
Copy CRC 50D9F2C1
Copy OK

No errors occurred


AccurateRip summary

Track 1 accurately ripped (confidence 3) [F4823B02]
Track 2 accurately ripped (confidence 3) [5D81B13F]
Track 3 accurately ripped (confidence 3) [6DF9178E]
Track 4 accurately ripped (confidence 3) [8ED7C557]
Track 5 accurately ripped (confidence 3) [B1CA69A5]
Track 6 accurately ripped (confidence 3) [E3E351C2]
Track 7 accurately ripped (confidence 3) [9951AD42]
Track 8 accurately ripped (confidence 3) [CBB9A4FB]
Track 9 accurately ripped (confidence 3) [D6412F23]

All tracks accurately ripped

End of status report

foobar2000 1.3.8 / Dynamic Range Meter 1.1.1
log date: 2015-05-15 19:34:28

--------------------------------------------------------------------------------
Analyzed: Tori Amos / B of A Pavilion, Boston, Ma, 8 21 05 (CD1)
--------------------------------------------------------------------------------

DR Peak RMS Duration Track
--------------------------------------------------------------------------------
DR10 -2.30 dB -15.42 dB 4:29 01-Original Sinsuality
DR10 -1.98 dB -14.23 dB 7:14 02-Caught a Lite Sneeze
DR11 0.00 dB -15.40 dB 6:27 03-Amber Waves
DR10 -3.16 dB -16.13 dB 5:14 04-Martha's Foolish Ginger
DR10 -2.42 dB -16.10 dB 7:27 05-Winter
DR10 -2.22 dB -14.93 dB 5:27 06-Pancake
DR12 -2.32 dB -17.81 dB 5:31 07-Cool on Your Island
DR11 -1.12 dB -15.62 dB 7:58 08-Total Eclipse of the Heart
DR10 -1.88 dB -15.12 dB 6:24 09-Angie
--------------------------------------------------------------------------------

Number of tracks: 9
Official DR value: DR11

Samplerate: 44100 Hz
Channels: 2
Bits per sample: 16
Bitrate: 747 kbps
Codec: WavPack
================================================================================

Exact Audio Copy V0.99 prebeta 3 from 28. July 2007

EAC extraction logfile from 13. February 2008, 19:10

Tori Amos / B of A Pavilion, Boston, Ma, 8 21 05 (CD2)

Used drive : _NEC DVD_RW ND-3550A Adapter: 1 ID: 0

Read mode : Secure
Utilize accurate stream : Yes
Defeat audio cache : Yes
Make use of C2 pointers : No

Read offset correction : 48
Overread into Lead-In and Lead-Out : No
Fill up missing offset samples with silence : Yes
Delete leading and trailing silent blocks : No
Null samples used in CRC calculations : Yes
Used interface : Installed external ASPI interface

Used output format : Monkey's Audio Lossless Encoder v3.99 DLL
Sample format : Normal Lossless Compression


TOC of the extracted CD

Track | Start | Length | Start sector | End sector
---------------------------------------------------------
1 | 0:00.00 | 8:32.17 | 0 | 38416
2 | 8:32.17 | 8:43.63 | 38417 | 77704
3 | 17:16.05 | 9:02.38 | 77705 | 118392
4 | 26:18.43 | 12:59.62 | 118393 | 176879
5 | 39:18.30 | 6:36.03 | 176880 | 206582
6 | 45:54.33 | 5:23.44 | 206583 | 230851
7 | 51:18.02 | 5:28.67 | 230852 | 255518
8 | 56:46.69 | 6:46.68 | 255519 | 286036


Range status and errors

Selected range

Filename E:!tracker!2releaseTori Amos2005 - (Live) - The Original BootlegsAlbum 6CD2Tori Amos - B of A Pavilion Boston Ma 8 21 05 (CD2).ape

Peak level 84.4 %
Range quality 100.0 %
Test CRC F0A9BCCD
Copy CRC F0A9BCCD
Copy OK

No errors occurred


AccurateRip summary

Track 1 accurately ripped (confidence 3) [504989B8]
Track 2 accurately ripped (confidence 3) [A5481B49]
Track 3 accurately ripped (confidence 3) [81BA01BB]
Track 4 accurately ripped (confidence 3) [F16EE562]
Track 5 accurately ripped (confidence 3) [F6704B46]
Track 6 accurately ripped (confidence 3) [8C148AD7]
Track 7 accurately ripped (confidence 3) [A713DF26]
Track 8 accurately ripped (confidence 3) [37975931]

All tracks accurately ripped

End of status report

foobar2000 1.3.8 / Dynamic Range Meter 1.1.1
log date: 2015-05-15 19:36:43

--------------------------------------------------------------------------------
Analyzed: Tori Amos / B of A Pavilion, Boston, Ma, 8 21 05 (CD2)
--------------------------------------------------------------------------------

DR Peak RMS Duration Track
--------------------------------------------------------------------------------
DR11 -1.65 dB -15.17 dB 8:32 01-Barons of Suburbia
DR11 -2.50 dB -17.30 dB 8:44 02-Garlands
DR11 -1.63 dB -15.25 dB 9:03 03-Tear in Your Hand
DR10 -2.45 dB -15.36 dB 13:00 04-The Beekeeper
DR10 -1.46 dB -15.68 dB 6:36 05-Dream on
DR10 -3.44 dB -17.13 dB 5:24 06-Pretty Good Year
DR11 -2.91 dB -16.87 dB 5:29 07-Playboy Mommy
DR10 -1.49 dB -14.77 dB 6:47 08-1,000 Oceans
--------------------------------------------------------------------------------

Number of tracks: 8
Official DR value: DR11

Samplerate: 44100 Hz
Channels: 2
Bits per sample: 16
Bitrate: 738 kbps
Codec: WavPack
================================================================================


------------------------------------------------------------------------------------------

All thanks to original releaser вАУ Caker