Marty Wilde - Marty Wilde's Frantic Fifties (1991)


Marty Wilde - Marty Wilde's Frantic Fifties (1991)
EAC Rip | FLAC+CUE+LOG - 279 MB | Covers | MP3 CBR 320 Kbps - 124 MB
Early British Pop/Rock | 53:26 mins | Label: Phonogram Ltd. (London) # 848 168-2

Marty Wilde (born Reginald Leonard Smith) is an English singer and songwriter. He was among the first generation of British pop stars to emulate American Rock And Roll, and is the father of Kim Wilde.


Tracklist:

01. Endless Sleep
02. A Teenager In Love
03. Wild Cat
04. Donna
05. Honeycomb
06. Sea Of Love
07. Bad Boy
08. Danny
09. Teenage Tears
10. You've Got Love
11. Put Me Down
12. So Glad You're Mine
13. Blue Moon Of Kentucky
14. High School Confidential
15. Down The Line
16. All American Boy
17. Splish Splash
18. Dream Lover
19. Love Of My Life
20. Mean Woman Blues
21. I Flipped
22. Are You Sincere
23. Don't Pity Me

Exact Audio Copy V1.0 beta 2 from 29. April 2011

Отчёт EAC об извлечении, выполненном 17. января 2013, 19:14

Marty Wilde / Marty Wilde's Frantic Fifties

Дисковод: ATAPI iHAS124 B Adapter: 1 ID: 1

Режим чтения : Достоверность
Использование точного потока : Да
Отключение кэша аудио : Да
Использование указателей C2 : Нет

Коррекция смещения при чтении : 6
Способность читать области Lead-in и Lead-out : Нет
Заполнение пропущенных сэмплов тишиной : Да
Удаление блоков с тишиной в начале и конце : Нет
При вычислениях CRC использовались нулевые сэмплы : Да
Интерфейс : Встроенный Win32-интерфейс для Win NT/2000

Выходной формат : Пользовательский кодировщик
Выбранный битрейт : 1024 kBit/s
Качество : Высокий
Добавление ID3-тега : Нет
Утилита сжатия : C:Program FilesExact Audio CopyFLACFLAC.EXE
Дополнительные параметры : -6 -V -T "ARTIST=%artist%" -T "TITLE=%title%" -T "ALBUM=%albumtitle%" -T "DATE=%year%" -T "TRACKNUMBER=%tracknr%" -T "GENRE=%genre%" -T "COMMENT=%comment%" -T "BAND=%albuminterpret%" -T "COMPOSER=%composer%" %haslyrics%--tag-from-


TOC извлечённого CD

Трек | Старт | Длительность | Начальный сектор | Конечный сектор
---------------------------------------------------------------------
1 | 0:00.33 | 2:21.25 | 33 | 10632
2 | 2:21.58 | 2:22.12 | 10633 | 21294
3 | 4:43.70 | 2:09.00 | 21295 | 30969
4 | 6:52.70 | 2:14.13 | 30970 | 41032
5 | 9:07.08 | 2:13.37 | 41033 | 51044
6 | 11:20.45 | 2:25.50 | 51045 | 61969
7 | 13:46.20 | 2:24.00 | 61970 | 72769
8 | 16:10.20 | 3:00.50 | 72770 | 86319
9 | 19:10.70 | 2:17.63 | 86320 | 96657
10 | 21:28.58 | 1:59.00 | 96658 | 105582
11 | 23:27.58 | 1:55.50 | 105583 | 114257
12 | 25:23.33 | 2:56.12 | 114258 | 127469
13 | 28:19.45 | 1:59.25 | 127470 | 136419
14 | 30:18.70 | 2:14.63 | 136420 | 146532
15 | 32:33.58 | 1:54.37 | 146533 | 155119
16 | 34:28.20 | 2:45.00 | 155120 | 167494
17 | 37:13.20 | 1:45.50 | 167495 | 175419
18 | 38:58.70 | 2:23.13 | 175420 | 186157
19 | 41:22.08 | 2:26.25 | 186158 | 197132
20 | 43:48.33 | 2:28.25 | 197133 | 208257
21 | 46:16.58 | 2:00.62 | 208258 | 217319
22 | 48:17.45 | 2:48.25 | 217320 | 229944
23 | 51:05.70 | 2:21.00 | 229945 | 240519


Характеристики диапазона извлечения и сообщения об ошибках

Выбранный диапазон

Имя файла D:MuzikaMarty Wilde - Marty Wilde's Frantic Fifties (1991)Marty Wilde - Marty Wilde's Frantic Fifties.wav

Пиковый уровень 100.0 %
Скорость извлечения 8.3 X
Качество диапазона 100.0 %
CRC теста 30D2B536
CRC копии 30D2B536
Копирование... OK

Ошибок не произошло


AccurateRip: сводка

Трек 1 : извлечено точно (доверие 2) [DC42AD40] (AR v1)
Трек 2 : извлечено точно (доверие 2) [1AE3969F] (AR v1)
Трек 3 : извлечено точно (доверие 2) [ABB7AD06] (AR v1)
Трек 4 : извлечено точно (доверие 2) [D788C6F7] (AR v1)
Трек 5 : извлечено точно (доверие 2) [BD1AC434] (AR v1)
Трек 6 : извлечено точно (доверие 2) [F8BA6C83] (AR v1)
Трек 7 : извлечено точно (доверие 2) [8EB6F358] (AR v1)
Трек 8 : извлечено точно (доверие 2) [9BFEBFA6] (AR v1)
Трек 9 : извлечено точно (доверие 2) [3DC269ED] (AR v1)
Трек 10 : извлечено точно (доверие 2) [014B613A] (AR v1)
Трек 11 : извлечено точно (доверие 2) [C5E90CDA] (AR v1)
Трек 12 : извлечено точно (доверие 2) [86ADBCB8] (AR v1)
Трек 13 : извлечено точно (доверие 2) [A3110881] (AR v1)
Трек 14 : извлечено точно (доверие 2) [67955798] (AR v1)
Трек 15 : извлечено точно (доверие 2) [B09DF35B] (AR v1)
Трек 16 : извлечено точно (доверие 2) [CAE1FF7C] (AR v1)
Трек 17 : извлечено точно (доверие 2) [01FF0058] (AR v1)
Трек 18 : извлечено точно (доверие 2) [366002DB] (AR v1)
Трек 19 : извлечено точно (доверие 2) [443EF540] (AR v1)
Трек 20 : извлечено точно (доверие 2) [3F35BDE1] (AR v1)
Трек 21 : извлечено точно (доверие 2) [C37C8F7C] (AR v1)
Трек 22 : извлечено точно (доверие 2) [3E46FB49] (AR v1)
Трек 23 : извлечено точно (доверие 2) [1E01C4D1] (AR v1)

Все треки извлечены точно

Конец отчёта

==== Контрольная сумма отчёта EC435AC6BD5F3D4528BDF98FD2C29A4C5A84403FDD01E78DE9E8739997161921 ====


All Thanks goes to audelas!
NITRO-F
http://www.nitroflare.com/view/C651E818BB82D55/MartyWilde1991LOS.rar
http://www.nitroflare.com/view/F678AB124537926/MartyWilde1991MP3.rar DOWNLOADABLE



LQ Covers includes in both types of archives.