Вход в свой аккаунт

Или войдите через соц. сети

Boots Randolph - Yakety Sax (1989)


Boots Randolph - Yakety Sax (1989)
EAC Rip | FLAC+CUE+LOG - 403 MB | Covers | MP3 CBR 320 Kbps - 135 MB
Rock & Roll / Country-Pop | 59:11 mins | Label: Bear Family Records # BCD 15459 AH

Homer Louis "Boots" Randolph III was an American musician best known for his 1963 saxophone hit "Yakety Sax". Randolph was a major part of the "Nashville Sound" for most of his professional career.

“ Tenor saxophonist Boots Randolph released numerous instrumental country-pop albums throughout the '60s and '70s. Randolph's choice of instrumentals were geared toward both the country and easy listening audiences. This Bear Family compilation focuses on Randolph's early recordings, featuring "Hey Elvis," "Blue Guitar," and "Estrellita," and his biggest chart-topper, "Yakety Sax". ”


Tracklist:

01. Percolator
02. Yakety Sax
03. Hey Elvis (1. Recording)
04. Difficult
05. I'm Getting The Message Baby
06. Little Big Horn (1. Recording)
07. Big Daddy (1. Recording)
08. Blue Guitar
09. Greenback Dollar
10. Sweet Talk
11. Red Light
12. La Golondrina
13. Temptation
14. Battle Of New Orleans
15. Sleep Walk
16. After You've Gone
17. Little Big Horn (2. Recording)
18. Sleep
19. So Rare
20. Teach Me Tonight
21. The Happy Whistler
22. Estrellita
23. Big Daddy (2. Recording)
24. Bongo Band
25. Yakey Sax
26. Hey Elvis (2. Recording)

Produced by Chet Atkins.
Re-Issue Produced by Richard Weize.
Mastered by Jorg Siemer.

Exact Audio Copy V1.0 beta 2 from 29. April 2011

EAC extraction logfile from 19. November 2012, 18:55

Boots Randolph / Yakety Sax

Used drive : _NEC DVD_RW ND-3550A Adapter: 1 ID: 0

Read mode : Secure
Utilize accurate stream : Yes
Defeat audio cache : Yes
Make use of C2 pointers : No

Read offset correction : 48
Overread into Lead-In and Lead-Out : No
Fill up missing offset samples with silence : Yes
Delete leading and trailing silent blocks : No
Null samples used in CRC calculations : Yes
Used interface : Native Win32 interface for Win NT & 2000

Used output format : User Defined Encoder
Selected bitrate : 768 kBit/s
Quality : High
Add ID3 tag : No
Command line compressor : C:Program FilesExact Audio CopyFLACFLAC.EXE
Additional command line options : -6 -V -T "ARTIST=%artist%" -T "TITLE=%title%" -T "ALBUM=%albumtitle%" -T "DATE=%year%" -T "TRACKNUMBER=%tracknr%" -T "GENRE=%genre%" -T "COMMENT=%comment%" -T "BAND=%albuminterpret%" -T "COMPOSER=%composer%" %haslyrics%--ta


TOC of the extracted CD

Track | Start | Length | Start sector | End sector
---------------------------------------------------------
1 | 0:00.00 | 2:13.15 | 0 | 9989
2 | 2:13.15 | 2:02.50 | 9990 | 19189
3 | 4:15.65 | 2:09.55 | 19190 | 28919
4 | 6:25.45 | 2:10.70 | 28920 | 38739
5 | 8:36.40 | 1:59.67 | 38740 | 47731
6 | 10:36.32 | 2:04.23 | 47732 | 57054
7 | 12:40.55 | 2:35.10 | 57055 | 68689
8 | 15:15.65 | 2:35.35 | 68690 | 80349
9 | 17:51.25 | 2:20.32 | 80350 | 90881
10 | 20:11.57 | 2:00.00 | 90882 | 99881
11 | 22:11.57 | 2:25.25 | 99882 | 110781
12 | 24:37.07 | 2:39.15 | 110782 | 122721
13 | 27:16.22 | 2:26.20 | 122722 | 133691
14 | 29:42.42 | 1:58.65 | 133692 | 142606
15 | 31:41.32 | 2:00.03 | 142607 | 151609
16 | 33:41.35 | 2:03.32 | 151610 | 160866
17 | 35:44.67 | 2:16.30 | 160867 | 171096
18 | 38:01.22 | 2:38.70 | 171097 | 183016
19 | 40:40.17 | 2:36.70 | 183017 | 194786
20 | 43:17.12 | 3:00.20 | 194787 | 208306
21 | 46:17.32 | 1:57.08 | 208307 | 217089
22 | 48:14.40 | 2:04.57 | 217090 | 226446
23 | 50:19.22 | 2:32.50 | 226447 | 237896
24 | 52:51.72 | 2:08.73 | 237897 | 247569
25 | 55:00.70 | 2:03.07 | 247570 | 256801
26 | 57:04.02 | 2:06.70 | 256802 | 266321


Range status and errors

Selected range

Filename D:MuzikaBoots Randolph - Yakety Sax (1989)Boots Randolph - Yakety Sax.wav

Peak level 100.0 %
Extraction speed 4.1 X
Range quality 99.9 %
Test CRC FA4CFBE8
Copy CRC FA4CFBE8
Copy OK

No errors occurred


AccurateRip summary

Track 1 not present in database
Track 2 not present in database
Track 3 not present in database
Track 4 not present in database
Track 5 not present in database
Track 6 not present in database
Track 7 not present in database
Track 8 not present in database
Track 9 not present in database
Track 10 not present in database
Track 11 not present in database
Track 12 not present in database
Track 13 not present in database
Track 14 not present in database
Track 15 not present in database
Track 16 not present in database
Track 17 not present in database
Track 18 not present in database
Track 19 not present in database
Track 20 not present in database
Track 21 not present in database
Track 22 not present in database
Track 23 not present in database
Track 24 not present in database
Track 25 not present in database
Track 26 not present in database

None of the tracks are present in the AccurateRip database

End of status report

==== Log checksum 888D8908FD112BCE089338E51167DF33D5AB44E1C6034A01E2FC0CE8FB75FF31 ====


All Thanks goes to audelas!
NITRO-F
http://www.nitroflare.com/view/7A716917FD5AD29/BootsRandolph1989LOS.rar
http://www.nitroflare.com/view/8429B57ACED32B9/BootsRandolph1989MP3.rar DOWNLOADABLE



LQ Covers includes in both types of archives.