OHM - Amino Acid Flashback (2005)


OHM - Amino Acid Flashback (2005)
EAC Rip | FLAC: Tracks+Cue+Log | 324 Mb | MP3 CBR 320 kbps | 107 Mb | Scans | Time: 43:24
Genre: Progressive Rock, Fusion | Label: Blacknote | Cat.№: 3024-2

The first release done on BlackNote Records, with Kofi Baker (son of the famed Ginger Baker from Cream) on the drum throne. This record was a combination of new and old, as the liner notes suggest. Much light and darkness in the lives of all those concerned, reflected in the colors of the music. “Tara”, and “Tattoo” were long part of the OHM set. “Spun” inspired by a movie, “Joog” a tongue-in-cheek title from some of our Armenian fans, “Williams'” by a friend, “Rooms of Telemetry” by a tragic loss in the family.


| | |




Track Listing

01. Davinci (02:57)
02. Tara (03:58)
03. William's Amino Acid Flashback (03:32)
04. What If... (03:47)
05. Joog In Da Boot (03:13)
06. Compass Of The Heart (04:04)
07. (03:44)
08. Rooms Of Telemetry (04:32)
09. Skint (03:16)
10. Spun (06:44)
11. Tattoo (03:32)

Produced by Chris Poland & Petar Sardelich

The Band

• Chris Poland (ex-Megadeth, The Circle Jerks, Damn the Machine, Mumbo's Brain, Dave Reffett, Ohmphrey) : guitar
• Robertino Pagliari : bass
• Kofi Baker : drums

EAC extraction logfile from 25. June 2007, 15:07 for CD
Ohm: / Amino Acid Flashback

Used drive : BENQ DVD LS DW1655 Adapter: 1 ID: 1
Read mode : Secure with NO C2, accurate stream, disable cache
Read offset correction : 12
Overread into Lead-In and Lead-Out : No

Used output format : C:Program FilesExact Audio Copyflac.exe (User Defined Encoder)
128 kBit/s
Additional command line options : -8 -A tukey(0.25) -A gauss(0.1875) -b 4096 -V -T "artist=%a" -T "title=%t" -T "album=%g" -T "date=%y" -T "tracknumber=%n" -T "genre=%m" %s --sector-align

Other options :
Fill up missing offset samples with silence : Yes
Delete leading and trailing silent blocks : No
Installed external ASPI interface


Track 1
Filename C:UsersDesktopacid1 - Ohm- - Davinci.wav

Pre-gap length 0:00:02.00

Peak level 100.0 %
Track quality 100.0 %
Test CRC D2FE1643
Copy CRC D2FE1643
Copy OK

Track 2
Filename C:UsersDesktopacid2 - Ohm- - Tara.wav

Peak level 100.0 %
Track quality 100.0 %
Test CRC 3B808644
Copy CRC 3B808644
Copy OK

Track 3
Filename C:UsersDesktopacid3 - Ohm- - William's Amino Acid Flashback.wav

Peak level 92.2 %
Track quality 100.0 %
Test CRC BF0AF9B3
Copy CRC BF0AF9B3
Copy OK

Track 4
Filename C:UsersDesktopacid4 - Ohm- - What If....wav

Pre-gap length 0:00:01.93

Peak level 98.8 %
Track quality 100.0 %
Test CRC 9AADD7CC
Copy CRC 9AADD7CC
Copy OK

Track 5
Filename C:UsersDesktopacid5 - Ohm- - Joog In Da Boot.wav

Pre-gap length 0:00:01.29

Peak level 100.0 %
Track quality 100.0 %
Test CRC 3E7A952B
Copy CRC 3E7A952B
Copy OK

Track 6
Filename C:UsersDesktopacid6 - Ohm- - Compass of the Heart.wav

Peak level 100.0 %
Track quality 99.9 %
Test CRC 25C2FE1F
Copy CRC 25C2FE1F
Copy OK

Track 7
Filename C:UsersDesktopacid7 - Ohm- - Icarus Falls.wav

Peak level 96.6 %
Track quality 100.0 %
Test CRC 67FEEBC2
Copy CRC 67FEEBC2
Copy OK

Track 8
Filename C:UsersDesktopacid8 - Ohm- - Rooms of Telemetry.wav

Peak level 100.0 %
Track quality 100.0 %
Test CRC B5B16CE5
Copy CRC B5B16CE5
Copy OK

Track 9
Filename C:UsersDesktopacid9 - Ohm- - Skint.wav

Peak level 100.0 %
Track quality 100.0 %
Test CRC 5DDD2B59
Copy CRC 5DDD2B59
Copy OK

Track 10
Filename C:UsersDesktopacid10 - Ohm- - Spun.wav

Pre-gap length 0:00:02.08

Peak level 100.0 %
Track quality 100.0 %
Test CRC AFF5C99B
Copy CRC AFF5C99B
Copy OK

Track 11
Filename C:UsersDesktopacid11 - Ohm- - Tattoo.wav

Pre-gap length 0:00:01.68

Peak level 100.0 %
Track quality 100.0 %
Test CRC 1AC8AD3D
Copy CRC 1AC8AD3D
Copy OK

No errors occured


End of status report


Many thanks to the original uploader: lanson
















Uploadable

|