Вход в свой аккаунт

Или войдите через соц. сети

Diane Schuur - Schuur Thing (1985)


Diane Schuur - Schuur Thing (1985)
EAC: flac (tracks) + cue + log | RAR, 3 %, 261,13 MB
mp3, 320 kbps | RAR, 3 %, 107,57 MB | Scans | RAR, 3 %, 10,12 MB
Label: GRP Records | Cat в„–: GRP-D-9531 | (NitroFlare + GigaPeta + DepositFiles)

11-track CD with a string section conducted and arranged by Dave Grusin, plus many special guests including Stan Getz, Lee Ritenour, Jose Feliciano and Paulinho Da Costa.

Exact Audio Copy V0.99 prebeta 5 from 4. May 2009

EAC extraction logfile from 23. February 2010, 22:24

Diane Schuur / Schuur Thing

Used drive : TOSHIBA DVD-ROM SD-R2212 Adapter: 1 ID: 0

Read mode : Secure
Utilize accurate stream : Yes
Defeat audio cache : No
Make use of C2 pointers : Yes

Read offset correction : 116
Overread into Lead-In and Lead-Out : No
Fill up missing offset samples with silence : Yes
Delete leading and trailing silent blocks : No
Null samples used in CRC calculations : No
Used interface : Native Win32 interface for Win NT & 2000
Gap handling : Not detected, thus appended to previous track

Used output format : User Defined Encoder
Selected bitrate : 768 kBit/s
Quality : High
Add ID3 tag : No
Command line compressor : C:ProgrammeExact Audio CopyFLACFLAC.EXE
Additional command line options : -6 -V -T "ARTIST=%a" -T "TITLE=%t" -T "ALBUM=%g" -T "DATE=%y" -T "TRACKNUMBER=%n" -T "GENRE=%m" -T "COMMENT=%e" %s -o %d


TOC of the extracted CD

Track | Start | Length | Start sector | End sector
---------------------------------------------------------
1 | 0:00.00 | 3:13.25 | 0 | 14499
2 | 3:13.25 | 3:54.07 | 14500 | 32056
3 | 7:07.32 | 5:34.50 | 32057 | 57156
4 | 12:42.07 | 3:56.40 | 57157 | 74896
5 | 16:38.47 | 4:01.28 | 74897 | 92999
6 | 20:40.00 | 3:42.55 | 93000 | 109704
7 | 24:22.55 | 4:34.32 | 109705 | 130286
8 | 28:57.12 | 5:17.30 | 130287 | 154091
9 | 34:14.42 | 3:37.35 | 154092 | 170401
10 | 37:52.02 | 4:30.25 | 170402 | 190676
11 | 42:22.27 | 3:16.10 | 190677 | 205386


Track 1

Filename C:Dokumente und EinstellungenxxxxxxEigene DateienDiane Schuur - Schuur Thing - 01 - Needle In A Haystack.wav

Peak level 89.7 %
Track quality 100.0 %
Copy CRC CCC2B103
Accurately ripped (confidence 1) [AAB0144E]
Copy OK

Track 2

Filename C:Dokumente und EinstellungenxxxxxxEigene DateienDiane Schuur - Schuur Thing - 02 - By Design.wav

Peak level 84.8 %
Track quality 100.0 %
Copy CRC 53048656
Accurately ripped (confidence 1) [B8793426]
Copy OK

Track 3

Filename C:Dokumente und EinstellungenxxxxxxEigene DateienDiane Schuur - Schuur Thing - 03 - Love Dance.wav

Peak level 58.2 %
Track quality 99.8 %
Copy CRC 33D9C448
Accurately ripped (confidence 1) [AB120E09]
Copy OK

Track 4

Filename C:Dokumente und EinstellungenxxxxxxEigene DateienDiane Schuur - Schuur Thing - 04 - Love You Back.wav

Peak level 100.0 %
Track quality 100.0 %
Copy CRC 4F9B3AD2
Accurately ripped (confidence 1) [4396A600]
Copy OK

Track 5

Filename C:Dokumente und EinstellungenxxxxxxEigene DateienDiane Schuur - Schuur Thing - 05 - Someday We'll All Be Free.wav

Peak level 79.0 %
Track quality 99.9 %
Copy CRC B1E00083
Accurately ripped (confidence 1) [9EE6B064]
Copy OK

Track 6

Filename C:Dokumente und EinstellungenxxxxxxEigene DateienDiane Schuur - Schuur Thing - 06 - It Don't Mean A Thing If It Ain't Got That Swing.wav

Peak level 82.5 %
Track quality 100.0 %
Copy CRC 17EAD6E9
Accurately ripped (confidence 1) [0118DBDA]
Copy OK

Track 7

Filename C:Dokumente und EinstellungenxxxxxxEigene DateienDiane Schuur - Schuur Thing - 07 - American Wedding Song.wav

Peak level 64.2 %
Track quality 99.9 %
Copy CRC 02197F6C
Accurately ripped (confidence 1) [752E58AE]
Copy OK

Track 8

Filename C:Dokumente und EinstellungenxxxxxxEigene DateienDiane Schuur - Schuur Thing - 08 - Take Me To The River.wav

Peak level 95.2 %
Track quality 100.0 %
Copy CRC 1A66C870
Accurately ripped (confidence 1) [DD92E7CF]
Copy OK

Track 9

Filename C:Dokumente und EinstellungenxxxxxxEigene DateienDiane Schuur - Schuur Thing - 09 - Make A Plan.wav

Peak level 84.3 %
Track quality 100.0 %
Copy CRC 5A3F7C4C
Accurately ripped (confidence 1) [3D3E9B27]
Copy OK

Track 10

Filename C:Dokumente und EinstellungenxxxxxxEigene DateienDiane Schuur - Schuur Thing - 10 - No Time For True Love.wav

Peak level 77.0 %
Track quality 100.0 %
Copy CRC B4FCD8A2
Accurately ripped (confidence 1) [10CD0634]
Copy OK

Track 11

Filename C:Dokumente und EinstellungenxxxxxxEigene DateienDiane Schuur - Schuur Thing - 11 - Sure Thing.wav

Peak level 41.4 %
Track quality 100.0 %
Copy CRC B747FD71
Accurately ripped (confidence 1) [49BD93CA]
Copy OK


All tracks accurately ripped

No errors occurred

End of status report
foobar2000 1.2.6 / Dynamic Range Meter 1.1.1
log date: 2014-12-14 17:52:33

--------------------------------------------------------------------------------
Analyzed: Diane Schuur / Schuur Thing
--------------------------------------------------------------------------------

DR Peak RMS Duration Track
--------------------------------------------------------------------------------
DR14 -0.94 dB -17.43 dB 3:13 01-Needle In A Haystack
DR14 -1.42 dB -18.69 dB 3:54 02-By Design
DR12 -4.69 dB -20.38 dB 5:35 03-Love Dance
DR16 0.00 dB -17.99 dB 3:57 04-Love You Back
DR13 -2.04 dB -19.84 dB 4:01 05-Someday We'll All Be Free
DR14 -1.67 dB -17.71 dB 3:43 06-It Don't Mean A Thing If It Ain't Got That Swing
DR13 -3.85 dB -19.74 dB 4:34 07-American Wedding Song
DR17 -0.42 dB -19.58 dB 5:17 08-Take Me To The River
DR14 -1.48 dB -19.47 dB 3:37 09-Make A Plan
DR15 -2.26 dB -21.00 dB 4:30 10-No Time For True Love
DR10 -7.64 dB -21.71 dB 3:16 11-Sure Thing
--------------------------------------------------------------------------------

Number of tracks: 11
Official DR value: DR14

Samplerate: 44100 Hz
Channels: 2
Bits per sample: 16
Bitrate: 606 kbps
Codec: FLAC
================================================================================


Tracklist:
01. Needle In A Haystack [03:13]
02. By Design [03:54]
03. Love Dance [05:34]
04. Love You Back [03:56]
05. Someday We'll All Be Free [04:01]
06. It Don't Mean A Thing If It Ain't Got That Swing [03:42]
07. American Wedding Song [04:34]
08. Take Me To The River [05:17]
09. Make A Plan [03:37]
10. No Time For True Love [04:30]
11. Sure Thing [03:16]
--------------------
Total Time: [45:40]

No mirrors, please!
Don't post these links at any web pages, please. Keep these files alive!
Not my rip! All Thanks to melektau!

Welcome to !

NitroFlare: http://www.nitroflare.com/view/A2874F80B90135B/DSST_f.part1.rar http://www.nitroflare.com/view/2BB9E137A856FEC/DSST_f.part2.rar http://www.nitroflare.com/view/37154EC4CDD0058/DSST_m.rar http://www.nitroflare.com/view/072F6C78906A1DB/DSST_s.rar GigaPeta:
DepositFiles:
pass: kermith