Вход в свой аккаунт

Или войдите через соц. сети

Bob Luman - Bob Luman... Rocks! His '50s Recordings (1995)


Bob Luman - Bob Luman... Rocks! His '50s Recordings (1995)
EAC Rip | FLAC+CUE+LOG - 341 MB | Covers | MP3 CBR 320 Kbps - 147 MB
Rockabilly | 63:03 mins | Label: Sparkletone Records # SP-CD 99010

“ Robert Glynn "Bob" Luman was an American country and rockabilly singer. This CD features Bob Luman at the start of his recording career. The music possesses the strength and character that is as evident today as when it was recorded more than fifty years ago. They are the wonderful lagacy of a gifted performer who always considered himself, "kinda Rockabilly"! ”


Tracklist:

01. Stranger Than Fiction
02. You're The Cause Of It All
03. That's Allright
04. Hello Baby
05. In The Deep Dark Jungle
06. Let Her Go
07. No Use In Lying
08. This Is The Night
09. All Night Long
10. Red Cadillac And A Black Moustache
11. Red Hot
12. Make Up Your Mind
13. Whenever You're Ready
14. Your Love
15. Bring Along Your Lovin'
16. Wild Eyed Woman
17. Blue Days, Black Nights
18. Amarillo Blues
19. Everybody's Talkin'
20. Try Me
21. I Know My Baby Cares
22. Svengali
23. Loretta
24. Buttercup
25. Class Of '59
26. Dreamy Doll
27. Boom Boom Yippy Yi Ya
28. Love Creator
29. My Baby Walks All Over Me
30. Lonely Road

Exact Audio Copy V1.0 beta 2 from 29. April 2011

EAC extraction logfile from 1. November 2012, 17:57

Bob Luman ...Rocks / His '50s Recordings

Used drive : _NEC DVD_RW ND-3550A Adapter: 1 ID: 0

Read mode : Secure
Utilize accurate stream : Yes
Defeat audio cache : Yes
Make use of C2 pointers : No

Read offset correction : 48
Overread into Lead-In and Lead-Out : No
Fill up missing offset samples with silence : Yes
Delete leading and trailing silent blocks : No
Null samples used in CRC calculations : Yes
Used interface : Native Win32 interface for Win NT & 2000

Used output format : User Defined Encoder
Selected bitrate : 768 kBit/s
Quality : High
Add ID3 tag : No
Command line compressor : C:Program FilesExact Audio CopyFLACFLAC.EXE
Additional command line options : -6 -V -T "ARTIST=%artist%" -T "TITLE=%title%" -T "ALBUM=%albumtitle%" -T "DATE=%year%" -T "TRACKNUMBER=%tracknr%" -T "GENRE=%genre%" -T "COMMENT=%comment%" -T "BAND=%albuminterpret%" -T "COMPOSER=%composer%" %haslyrics%--ta


TOC of the extracted CD

Track | Start | Length | Start sector | End sector
---------------------------------------------------------
1 | 0:00.00 | 1:50.27 | 0 | 8276
2 | 1:50.27 | 2:12.55 | 8277 | 18231
3 | 4:03.07 | 1:42.33 | 18232 | 25914
4 | 5:45.40 | 1:52.37 | 25915 | 34351
5 | 7:38.02 | 2:18.05 | 34352 | 44706
6 | 9:56.07 | 2:49.28 | 44707 | 57409
7 | 12:45.35 | 0:54.42 | 57410 | 61501
8 | 13:40.02 | 2:18.60 | 61502 | 71911
9 | 15:58.62 | 1:47.13 | 71912 | 79949
10 | 17:46.00 | 2:21.20 | 79950 | 90544
11 | 20:07.20 | 2:04.32 | 90545 | 99876
12 | 22:11.52 | 1:54.33 | 99877 | 108459
13 | 24:06.10 | 2:05.45 | 108460 | 117879
14 | 26:11.55 | 2:40.50 | 117880 | 129929
15 | 28:52.30 | 1:56.02 | 129930 | 138631
16 | 30:48.32 | 2:07.60 | 138632 | 148216
17 | 32:56.17 | 2:16.03 | 148217 | 158419
18 | 35:12.20 | 2:52.05 | 158420 | 171324
19 | 38:04.25 | 2:04.62 | 171325 | 180686
20 | 40:09.12 | 2:12.05 | 180687 | 190591
21 | 42:21.17 | 2:21.15 | 190592 | 201181
22 | 44:42.32 | 2:04.08 | 201182 | 210489
23 | 46:46.40 | 1:29.35 | 210490 | 217199
24 | 48:16.00 | 2:09.17 | 217200 | 226891
25 | 50:25.17 | 1:52.40 | 226892 | 235331
26 | 52:17.57 | 2:11.10 | 235332 | 245166
27 | 54:28.67 | 2:15.73 | 245167 | 255364
28 | 56:44.65 | 1:57.00 | 255365 | 264139
29 | 58:41.65 | 2:06.57 | 264140 | 273646
30 | 60:48.47 | 2:14.40 | 273647 | 283736


Range status and errors

Selected range

Filename D:MuzikaBob Luman ...Rocks - His '50s Recordings (1995)Bob Luman ...Rocks - His '50s Recordings.wav

Peak level 99.9 %
Extraction speed 5.0 X
Range quality 99.9 %
Test CRC A3ED448F
Copy CRC A3ED448F
Copy OK

No errors occurred


AccurateRip summary

Track 1 not present in database
Track 2 not present in database
Track 3 not present in database
Track 4 not present in database
Track 5 not present in database
Track 6 not present in database
Track 7 not present in database
Track 8 not present in database
Track 9 not present in database
Track 10 not present in database
Track 11 not present in database
Track 12 not present in database
Track 13 not present in database
Track 14 not present in database
Track 15 not present in database
Track 16 not present in database
Track 17 not present in database
Track 18 not present in database
Track 19 not present in database
Track 20 not present in database
Track 21 not present in database
Track 22 not present in database
Track 23 not present in database
Track 24 not present in database
Track 25 not present in database
Track 26 not present in database
Track 27 not present in database
Track 28 not present in database
Track 29 not present in database
Track 30 not present in database

None of the tracks are present in the AccurateRip database

End of status report

==== Log checksum 0D9BF885E45CA0565BCC4BEDC81611097D1A24358A51F7B95905937F39FB35CD ====


All Thanks goes to audelas!
NITRO-F
http://www.nitroflare.com/view/9CB64FD3F5C26C4/BobLuman1995LOS.rar
http://www.nitroflare.com/view/6899386778A38BA/BobLuman1995MP3.rar DOWNLOADABLE



LQ Covers includes in both types of archives.