Jesse Dayton – South Austin Sessions (2006)


Jesse Dayton – South Austin Sessions (2006)
Country/Rockabily | FLAC lossless | cuesheets+log | covers+booklet | 34m17s | 230mb
Label: Stag | cat.no. 008


As requested
Jesse Dayton is an American, Austin, Texas-based honky tonk and rockabilly artist, best known for his guitar contributions to albums by country musicians including Johnny Cash, Waylon Jennings, and Willie Nelson. He is also notable for his collaborations with horror film director Rob Zombie, who has commissioned Dayton on multiple occasions to record music to accompany his films.
Dayton was born in Beaumont, Texas, where he was raised on the music of George Jones, Hank Williams, and Lefty Frizzell, all the while harboring an affinity for the spirit of punk with bands like the Clash. After touring with two rockabilly bands, the Road Kings and the Alamo Jets, Dayton ventured off into solo territory, recording his Americana-chart-topping record Raisin' Cain.
Since then Dayton has released several different solo albums and worked with a variety of country rock artists, most notably Waylon Jennings and Johnny Cash on Right for the Time after Jennings injured his picking thumb and required a guitar stand-in. Dayton also contributed guitarwork on albums by the Supersuckers and Kris Kristofferson.


Tracks:

01. Loretta [0:03:41.78]
02. Mexican Blackbird [0:03:19.06]
03. Why Do I Love You [0:03:27.62]
04. Sometimes [0:03:43.41]
05. Roadworn & Weary [0:03:03.05]
06. Cornbread, Peas and Black Molassas [0:03:02.06]
07. Swan Song [0:02:57.38]
08. Waymore's Blues [0:03:07.17]
09. Coco Loco [0:05:06.57]
10. Where The Beer Keeps Flowin' [0:02:52.70]

Performers:

Jesse Dayton - Vocals, electric and acoustic guitars, electric bass, percussion Eric Tucker - drums
Eric Tucker - drums
Nathan Fleming - pedal steel guitar
Redd Volkaert - telecaster guitar
Riley Osbourn - piano, B-3 organ, Wurlitzer
Eric flokkanen - fiddle
Carolyn Wonderland - backing vocals
Herman Brock Jr. - acoustic guitar, dulcimer
fizz Sprangers - upright bass
Casper Rawls - 13-bender guitar
Vic Gerard - electric bass
Bradley Jaye Williams - accordion
Mark Rubin - tuba
Jon Nondell - trombone
Joey Colarusso - tenor sax
Brian Thomas - banjo, dobro, pedal steel

Exact Audio Copy V1.0 beta 3 from 29. August 2011

EAC extraction logfile from 17. December 2014, 18:41

Jesse Dayton / South Austin Sessions

Used drive : TSSTcorpCDDVDW SH-216AB Adapter: 1 ID: 0

Read mode : Secure
Utilize accurate stream : Yes
Defeat audio cache : Yes
Make use of C2 pointers : No

Read offset correction : 6
Overread into Lead-In and Lead-Out : No
Fill up missing offset samples with silence : Yes
Delete leading and trailing silent blocks : No
Null samples used in CRC calculations : Yes
Used interface : Native Win32 interface for Win NT & 2000
Gap handling : Appended to previous track

Used output format : User Defined Encoder
Selected bitrate : 768 kBit/s
Quality : High
Add ID3 tag : No
Command line compressor : C:Program Files (x86)Exact Audio CopyFLACFLAC.EXE
Additional command line options : -6 -V -T "ARTIST=%artist%" -T "TITLE=%title%" -T "ALBUM=%albumtitle%" -T "DATE=%year%" -T "TRACKNUMBER=%tracknr%" -T "GENRE=%genre%" -T "COMMENT=%comment%" -T "BAND=%albuminterpret%" -T "ALBUMARTIST=%albuminterpret%" -T "COMPOSER=%composer%" %haslyrics%--tag-from-file=LYRICS="%lyricsfile%"%haslyrics% -T "DISCNUMBER=%cdnumber%" -T "TOTALDISCS=%totalcds%" -T "TOTALTRACKS=%numtracks%" %hascover%--picture="%coverfile%"%hascover% %source% -o %dest%


TOC of the extracted CD

Track | Start | Length | Start sector | End sector
---------------------------------------------------------
1 | 0:00.00 | 3:41.59 | 0 | 16633
2 | 3:41.59 | 3:19.05 | 16634 | 31563
3 | 7:00.64 | 3:27.47 | 31564 | 47135
4 | 10:28.36 | 3:43.31 | 47136 | 63891
5 | 14:11.67 | 3:03.04 | 63892 | 77620
6 | 17:14.71 | 3:02.05 | 77621 | 91275
7 | 20:17.01 | 2:57.29 | 91276 | 104579
8 | 23:14.30 | 3:07.13 | 104580 | 118617
9 | 26:21.43 | 5:06.43 | 118618 | 141610
10 | 31:28.11 | 2:52.53 | 141611 | 154563


Track 1

Filename C:Usersastarte3. POSTJesse Dayton1. Loretta.wav

Pre-gap length 0:00:02.00

Peak level 98.8 %
Extraction speed 1.6 X
Track quality 99.9 %
Copy CRC 5ADC275C
Accurately ripped (confidence 2) [10C275D1] (AR v1)
Copy OK

Track 2

Filename C:Usersastarte3. POSTJesse Dayton2. Mexican Blackbird.wav

Pre-gap length 0:00:02.00

Peak level 98.8 %
Extraction speed 1.8 X
Track quality 100.0 %
Copy CRC FE69ED34
Accurately ripped (confidence 2) [001AA480] (AR v1)
Copy OK

Track 3

Filename C:Usersastarte3. POSTJesse Dayton3. Why Do I Love You.wav

Pre-gap length 0:00:02.00

Peak level 98.8 %
Extraction speed 2.0 X
Track quality 100.0 %
Copy CRC 86EB31D5
Accurately ripped (confidence 2) [55EDA070] (AR v1)
Copy OK

Track 4

Filename C:Usersastarte3. POSTJesse Dayton4. Sometimes.wav

Pre-gap length 0:00:02.00

Peak level 98.8 %
Extraction speed 2.0 X
Track quality 99.9 %
Copy CRC 1DD68AAF
Accurately ripped (confidence 2) [966D9619] (AR v1)
Copy OK

Track 5

Filename C:Usersastarte3. POSTJesse Dayton5. Roadworn & Weary.wav

Pre-gap length 0:00:02.00

Peak level 98.8 %
Extraction speed 2.2 X
Track quality 100.0 %
Copy CRC FA225DB6
Accurately ripped (confidence 2) [36A3D1EF] (AR v1)
Copy OK

Track 6

Filename C:Usersastarte3. POSTJesse Dayton6. Cornbread, Peas and Black Molassas.wav

Pre-gap length 0:00:02.00

Peak level 98.8 %
Extraction speed 2.3 X
Track quality 100.0 %
Copy CRC B07628EC
Accurately ripped (confidence 2) [AF90931A] (AR v1)
Copy OK

Track 7

Filename C:Usersastarte3. POSTJesse Dayton7. Swan Song.wav

Pre-gap length 0:00:02.00

Peak level 98.8 %
Extraction speed 2.4 X
Track quality 100.0 %
Copy CRC 932F2033
Accurately ripped (confidence 2) [0F24C6E2] (AR v1)
Copy OK

Track 8

Filename C:Usersastarte3. POSTJesse Dayton8. Waymore's Blues.wav

Pre-gap length 0:00:02.00

Peak level 98.8 %
Extraction speed 2.5 X
Track quality 100.0 %
Copy CRC 6CE2E0BC
Accurately ripped (confidence 2) [2F3A2240] (AR v1)
Copy OK

Track 9

Filename C:Usersastarte3. POSTJesse Dayton9. Coco Loco.wav

Pre-gap length 0:00:02.00

Peak level 98.8 %
Extraction speed 2.8 X
Track quality 100.0 %
Copy CRC B10A6EF5
Accurately ripped (confidence 2) [EC8E2D6B] (AR v1)
Copy OK

Track 10

Filename C:Usersastarte3. POSTJesse Dayton10. Where The Beer Keeps Flowin'.wav

Pre-gap length 0:01:35.96

Peak level 98.8 %
Extraction speed 2.8 X
Track quality 100.0 %
Copy CRC 85E89009
Accurately ripped (confidence 2) [38F60A92] (AR v1)
Copy OK


All tracks accurately ripped

No errors occurred

End of status report

==== Log checksum E5E839029A4D2DC09D871044A3DB61E8C41DC2A5826E02C8D09CBA076B7F70EF ====