Вход в свой аккаунт

Или войдите через соц. сети

Johnny Powers - Long Blond Hair (1993)


Johnny Powers - Long Blond Hair (1993)
EAC Rip | FLAC+CUE+LOG - 263 MB | Covers | MP3 CBR 320 Kbps - 118 MB
Rockabilly | 48:26 mins | Label: Norton Records # CED-229

Johnny Powers is an American guitar player, singer, writer and producer specializing in Rockabilly. Powers is best known for his 1957 recording on the now-defunct Fox Records label entitled "Long Blond Hair".

Fox went out of business soon thereafter and in 1959 Powers signed with Sun Records, which released one single under his name. In 1960, Powers met with Berry Gordy and signed on with Motown Records, becoming the first white male musician to do so; he is also thought to be the only recording artist to have ever been under contract to both Sun and Motown Records. In his five year relationship with Motown, Powers devoted most of his energies to producing and writing rather than recording.

Powers has been inducted into the Rockabilly Hall of Fame. Today, he continues to tour and perform throughout the United States and Europe.

“ An excellent 23-track retrospective of Powers' early career. All the landmark Fox (the title cut), Fortune ("Honey Let's Go to a Rock'n'Roll Show") and Sun ("With Your Love, with Your Kiss") singles from the '50s are here, along with a batch of unissued material from the same time frame. Great, true, high powered rockin' that makes up in raw enthusiasm what it may sacrifice in commercial pleasantries. ”


Tracklist:

01. Long Blond Hair
02. Rock Rock
03. Mama Rock
04. Someone's Gonna Hurt You
05. Mean Mistreater
06. Waitin' For You
07. Honey Let's Go (To A Rock And Roll Show)
08. Your Love
09. Be-Bop-A-Lula
10. Don't Go Away
11. Waitin' For You
12. Treat Me Right
13. Indeed I Do
14. Oh So Far Away
15. Trouble
16. Waitin' For You
17. With Your Love, With Your Kiss
18. Be Mine, All Mine
19. Don't Lie To Me
20. Waitin' For You
21. Me And My Rhythm Guitar
22. I'm Walkin'
23. Waitin' For You

Exact Audio Copy V1.0 beta 2 from 29. April 2011

EAC extraction logfile from 13. November 2012, 20:05

Johnny Powers / Long Blond Hair

Used drive : _NEC DVD_RW ND-3550A Adapter: 1 ID: 0

Read mode : Secure
Utilize accurate stream : Yes
Defeat audio cache : Yes
Make use of C2 pointers : No

Read offset correction : 48
Overread into Lead-In and Lead-Out : No
Fill up missing offset samples with silence : Yes
Delete leading and trailing silent blocks : No
Null samples used in CRC calculations : Yes
Used interface : Native Win32 interface for Win NT & 2000

Used output format : User Defined Encoder
Selected bitrate : 768 kBit/s
Quality : High
Add ID3 tag : No
Command line compressor : C:Program FilesExact Audio CopyFLACFLAC.EXE
Additional command line options : -6 -V -T "ARTIST=%artist%" -T "TITLE=%title%" -T "ALBUM=%albumtitle%" -T "DATE=%year%" -T "TRACKNUMBER=%tracknr%" -T "GENRE=%genre%" -T "COMMENT=%comment%" -T "BAND=%albuminterpret%" -T "COMPOSER=%composer%" %haslyrics%--ta


TOC of the extracted CD

Track | Start | Length | Start sector | End sector
---------------------------------------------------------
1 | 0:00.00 | 2:10.32 | 0 | 9781
2 | 2:10.32 | 1:56.65 | 9782 | 18546
3 | 4:07.22 | 1:59.10 | 18547 | 27481
4 | 6:06.32 | 3:25.55 | 27482 | 42911
5 | 9:32.12 | 1:59.08 | 42912 | 51844
6 | 11:31.20 | 1:42.65 | 51845 | 59559
7 | 13:14.10 | 1:50.52 | 59560 | 67861
8 | 15:04.62 | 1:49.03 | 67862 | 76039
9 | 16:53.65 | 1:17.30 | 76040 | 81844
10 | 18:11.20 | 2:42.42 | 81845 | 94036
11 | 20:53.62 | 1:32.10 | 94037 | 100946
12 | 22:25.72 | 2:03.18 | 100947 | 110189
13 | 24:29.15 | 1:52.12 | 110190 | 118601
14 | 26:21.27 | 2:39.53 | 118602 | 130579
15 | 29:01.05 | 1:41.70 | 130580 | 138224
16 | 30:43.00 | 1:30.45 | 138225 | 145019
17 | 32:13.45 | 2:37.57 | 145020 | 156851
18 | 34:51.27 | 2:22.28 | 156852 | 167529
19 | 37:13.55 | 2:22.30 | 167530 | 178209
20 | 39:36.10 | 1:29.62 | 178210 | 184946
21 | 41:05.72 | 2:35.55 | 184947 | 196626
22 | 43:41.52 | 3:03.68 | 196627 | 210419
23 | 46:45.45 | 1:40.10 | 210420 | 217929


Range status and errors

Selected range

Filename D:MuzikaJohnny Powers - Long Blond Hair (1993)Johnny Powers - Long Blond Hair.wav

Peak level 92.8 %
Extraction speed 1.9 X
Range quality 99.9 %
Test CRC 0D1BD290
Copy CRC 0D1BD290
Copy OK

No errors occurred


AccurateRip summary

Track 1 cannot be verified as accurate (confidence 1) [E839CC91], AccurateRip returned [4811042F] (AR v2)
Track 2 cannot be verified as accurate (confidence 1) [E91F5558], AccurateRip returned [8DA28D02] (AR v2)
Track 3 cannot be verified as accurate (confidence 1) [2BCE7AD1], AccurateRip returned [276E504B] (AR v2)
Track 4 cannot be verified as accurate (confidence 1) [2E08D439], AccurateRip returned [AA102662] (AR v2)
Track 5 cannot be verified as accurate (confidence 1) [C0EDAFB9], AccurateRip returned [CA8038D0] (AR v2)
Track 6 cannot be verified as accurate (confidence 1) [30768FDA], AccurateRip returned [45AFCAF2] (AR v2)
Track 7 cannot be verified as accurate (confidence 1) [52A5DE51], AccurateRip returned [1F60116C] (AR v2)
Track 8 cannot be verified as accurate (confidence 1) [C5DC2B22], AccurateRip returned [4EF5B432] (AR v2)
Track 9 cannot be verified as accurate (confidence 1) [471B1382], AccurateRip returned [6B3B15FD] (AR v2)
Track 10 cannot be verified as accurate (confidence 1) [6899D978], AccurateRip returned [FBBB844A] (AR v2)
Track 11 cannot be verified as accurate (confidence 1) [54AB5F21], AccurateRip returned [013E704A] (AR v2)
Track 12 cannot be verified as accurate (confidence 1) [93BACEFA], AccurateRip returned [EE62F3E2] (AR v2)
Track 13 cannot be verified as accurate (confidence 1) [880198BB], AccurateRip returned [76A36D73] (AR v2)
Track 14 cannot be verified as accurate (confidence 1) [377DC1DE], AccurateRip returned [9B8379EC] (AR v2)
Track 15 cannot be verified as accurate (confidence 1) [04299156], AccurateRip returned [36AEC1FB] (AR v2)
Track 16 cannot be verified as accurate (confidence 1) [AC1195A9], AccurateRip returned [CE99E901] (AR v2)
Track 17 cannot be verified as accurate (confidence 1) [6BCA2E7E], AccurateRip returned [5539A224] (AR v2)
Track 18 cannot be verified as accurate (confidence 1) [85F1B9D7], AccurateRip returned [E98E69BA] (AR v2)
Track 19 cannot be verified as accurate (confidence 1) [9090C7D3], AccurateRip returned [BF7AD409] (AR v2)
Track 20 cannot be verified as accurate (confidence 1) [BE9B7D4B], AccurateRip returned [3B2EF767] (AR v2)
Track 21 cannot be verified as accurate (confidence 1) [A8CD7525], AccurateRip returned [0B17CB3C] (AR v2)
Track 22 cannot be verified as accurate (confidence 1) [DB023943], AccurateRip returned [06092031] (AR v2)
Track 23 cannot be verified as accurate (confidence 1) [02DA6A40], AccurateRip returned [FFC805F3] (AR v2)

No tracks could be verified as accurate
You may have a different pressing from the one(s) in the database

End of status report

==== Log checksum A7FEF57FCE87C96F59830E0D4A981FB2C13BFBE06E905DA49FF58899F7EEBEE7 ====

------------------

[AccurateRip ID: 00277588-029018ce-500b5917] found.
Track [ CRC | V2 ] Status
01 [45808d5e|e839cc91] (0+0/1) No match
02 [8706cfaf|e91f5558] (0+0/1) No match
03 [70ff987a|2bce7ad1] (0+0/1) No match
04 [60bc0a43|2e08d439] (0+0/1) No match
05 [1d89bb62|c0edafb9] (0+0/1) No match
06 [01ca2f50|30768fda] (0+0/1) No match
07 [4a2731b3|52a5de51] (0+0/1) No match
08 [cefa37e0|c5dc2b22] (0+0/1) No match
09 [6d9d4666|471b1382] (0+0/1) No match
10 [d1f6d4cb|6899d978] (0+0/1) No match
11 [115ac1b8|54ab5f21] (0+0/1) No match
12 [8383d1d2|93bacefa] (0+0/1) No match
13 [55e410a1|880198bb] (0+0/1) No match
14 [9d1c175f|377dc1de] (0+0/1) No match
15 [6e02491e|04299156] (0+0/1) No match
16 [9eceab5e|ac1195a9] (0+0/1) No match
17 [a66cc380|6bca2e7e] (0+0/1) No match
18 [0ff1d79d|85f1b9d7] (0+0/1) No match
19 [e594c5c2|9090c7d3] (0+0/1) No match
20 [1217fd47|be9b7d4b] (0+0/1) No match
21 [2fa231a4|a8cd7525] (0+0/1) No match
22 [7d22ad66|db023943] (0+0/1) No match
23 [4861e868|02da6a40] (0+0/1) No match
Offsetted by -522:
01 [4811042f] (1/1) Accurately ripped
02 [8da28d02] (1/1) Accurately ripped
03 [276e504b] (1/1) Accurately ripped
04 [aa102662] (1/1) Accurately ripped
05 [ca8038d0] (1/1) Accurately ripped
06 [45afcaf2] (1/1) Accurately ripped
07 [1f60116c] (1/1) Accurately ripped
08 [4ef5b432] (1/1) Accurately ripped
09 [6b3b15fd] (1/1) Accurately ripped
10 [fbbb844a] (1/1) Accurately ripped
11 [013e704a] (1/1) Accurately ripped
12 [ee62f3e2] (1/1) Accurately ripped
13 [76a36d73] (1/1) Accurately ripped
14 [9b8379ec] (1/1) Accurately ripped
15 [36aec1fb] (1/1) Accurately ripped
16 [ce99e901] (1/1) Accurately ripped
17 [5539a224] (1/1) Accurately ripped
18 [e98e69ba] (1/1) Accurately ripped
19 [bf7ad409] (1/1) Accurately ripped
20 [3b2ef767] (1/1) Accurately ripped
21 [0b17cb3c] (1/1) Accurately ripped
22 [06092031] (1/1) Accurately ripped
23 [ffc805f3] (1/1) Accurately ripped

Track Peak [ CRC32 ] [W/O NULL] [ LOG ]
-- 92,8 [0D1BD290] [15541A6E] CRC32
01 83,5 [E3B61EB1] [D7F9E113]
02 73,8 [8258DBC6] [D0FDDF40]
03 88,4 [4783B0E5] [E5AE7F04]
04 90,2 [72E57D23] [BA507E1F]
05 92,3 [A417D84C] [AAC29F63]
06 88,5 [430C0AB0] [27EA9F59]
07 82,5 [177AC72C] [4742934F]
08 81,2 [9C9A2B8F] [AC8BB48F]
09 84,0 [59F99AD4] [1075C0E5]
10 88,4 [520DB21A] [6E2E8CCB]
11 92,8 [D43A7583] [ABAA3363]
12 76,2 [15E7BED2] [C4AA30BC]
13 65,8 [76A51D64] [77BE6AE9]
14 72,8 [ABF17133] [CDDA6033]
15 92,1 [E31CDABA] [00BEA33B]
16 69,6 [9936732F] [05E9F383]
17 88,7 [7EF2B42E] [A1075519]
18 92,0 [86BF12BA] [52004CAD]
19 91,7 [94003107] [F6C4B8C7]
20 88,2 [0346069A] [65A26574]
21 69,9 [2DA7A15C] [CC996460]
22 88,7 [36DAE67C] [E35E83C3]
23 89,3 [94BD5662] [74BC6881]


All Thanks goes to audelas!
NITRO-F
http://www.nitroflare.com/view/AC341162E032B85/JohnnyPowers1993LOS.rar
http://www.nitroflare.com/view/C564DC81300CD17/JohnnyPowers1993MP3.rar DOWNLOADABLE



LQ Covers includes in both types of archives.