Вход в свой аккаунт

Или войдите через соц. сети

Qualcosa di buono / You're Not You (2014)


Qualcosa di buono / You're Not You (2014)
BDRip | AVI / XviD, 1844 Kbps | 720x400 | 1h 20mn | 1.78 GB
Italian: AC3, 640 Kbps (6 ch) | Subtitles: None
Genre: Drama

Kate (Hilary Swank) ГЁ una trentenne affermata la cui vita perfetta viene improvvisamente stravolta quando le diagnosticano una devastante e incurabile malattia: la SLA. Kate e suo marito Evan (Josh Duhamel), nella ricerca di un assistente a tempo pieno per Kate, si imbattono in Bec (Emmy Rossum), una studentessa di college che ha risposto impulsivamente all'annuncio pur non avendo la minima esperienza. Nonostante Bec sia una persona confusionaria e



General
Complete name : Qualcosa.Di.Buono.2014.iTALiAN.BDRiP.XviD.avi
Format : AVI
Format/Info : Audio Video Interleave
File size : 1.78 GiB
Duration : 1h 42mn
Overall bit rate : 2 493 Kbps
Writing application : VirtualDubMod 1.5.10.2 (build 2540/release)
Writing library : VirtualDubMod build 2540/release

Video
ID : 0
Format : MPEG-4 Visual
Format profile : Advanced [email protected]
Format settings, BVOP : 2
Format settings, QPel : No
Format settings, GMC : No warppoints
Format settings, Matrix : Default (MPEG)
Codec ID : XVID
Codec ID/Hint : XviD
Duration : 1h 42mn
Bit rate : 1 844 Kbps
Width : 720 pixels
Height : 400 pixels
Display aspect ratio : 16:9
Frame rate : 24.000 fps
Color space : YUV
Chroma subsampling : 4:2:0
Bit depth : 8 bits
Scan type : Progressive
Compression mode : Lossy
Bits/(Pixel*Frame) : 0.267
Stream size : 1.32 GiB (74%)
Writing library : XviD 67

Audio
ID : 1
Format : AC-3
Format/Info : Audio Coding 3
Mode extension : CM (complete main)
Format settings, Endianness : Big
Codec ID : 2000
Duration : 1h 42mn
Bit rate mode : Constant
Bit rate : 640 Kbps
Channel(s) : 6 channels
Channel positions : Front: L C R, Side: L R, LFE
Sampling rate : 48.0 KHz
Compression mode : Lossy
Stream size : 469 MiB (26%)
Alignment : Split accross interleaves
Interleave, duration : 42 ms (1.00 video frame)
Interleave, preload duratio : 500 ms


screenshots:









No more mirrors!
“ ”