Вход в свой аккаунт

Или войдите через соц. сети

TRON: Legacy (2010)


TRON: Legacy (2010)
720p BDRip | MKV | 1280x720 | x264 @ 3602 Kbps | English DTS (6 ch) @ 1509 Kbps | 2h 5mn | 4.52 GB
1080p BDRip | MKV | 1920x1080 | x264 @ 13.3 Mbps | English DTS-HD MA (8 ch) @ 3328 Kbps | 2h 5mn | 14.6 GB
Sub: English, Swedish, Finnish, Norwegian, Danish, Icelandic, Portuguese, Romany, Spanish, Arabic
Genre: Action | Adventure | Sci-Fi

The son of a virtual world designer goes looking for his father and ends up inside the digital world that his father designed. He meets his father's corrupted creation and a unique ally who was born inside the digital world.



General
Unique ID : 245450963037182697126614503213635242892 (0xB8A822CE38DB5669927FA76304E88B8C)
Complete name : C:UsersAdministratorDownloadsTron Legacy 2010 iNTERNAL 720p BluRay x264-MOOVEETron.Legacy.2010.iNTERNAL.720p.BluRay.x264-MOOVEE.mkv
Format : Matroska
Format version : Version 4 / Version 2
File size : 4.52 GiB
Duration : 2 h 5 min
Overall bit rate : 5 173 kb/s
Encoded date : UTC 2016-12-07 14:59:23
Writing application : mkvmerge v9.3.1 ('Mask Machine') 64bit
Writing library : libebml v1.3.4 + libmatroska v1.4.5

Video
ID : 1
Format : AVC
Format/Info : Advanced Video Codec
Format profile : [email protected]
Format settings, CABAC : Yes
Format settings, ReFrames : 5 frames
Codec ID : V_MPEG4/ISO/AVC
Duration : 2 h 5 min
Bit rate : 3 602 kb/s
Width : 1 280 pixels
Height : 720 pixels
Display aspect ratio : 16:9
Frame rate mode : Constant
Frame rate : 23.976 (24000/1001) FPS
Color space : YUV
Chroma subsampling : 4:2:0
Bit depth : 8 bits
Scan type : Progressive
Bits/(Pixel*Frame) : 0.163
Stream size : 3.15 GiB (70%)
Writing library : x264 core 148 r2744kMod b97ae06
Encoding settings : cabac=1 / ref=5 / deblock=1:0:0 / analyse=0x3:0x113 / me=hex / subme=8 / psy=1 / fade_compensate=0.00 / psy_rd=1.00:0.00 / mixed_ref=1 / me_range=16 / chroma_me=1 / trellis=2 / 8x8dct=1 / cqm=0 / deadzone=21,11 / fast_pskip=1 / chroma_qp_offset=-2 / threads=18 / lookahead_threads=3 / sliced_threads=0 / nr=0 / decimate=1 / interlaced=0 / bluray_compat=0 / constrained_intra=0 / bframes=3 / b_pyramid=2 / b_adapt=1 / b_bias=0 / direct=3 / weightb=1 / open_gop=0 / weightp=2 / keyint=250 / keyint_min=23 / scenecut=40 / intra_refresh=0 / rc_lookahead=50 / rc=crf / mbtree=1 / crf=18.0000 / qcomp=0.60 / qpmin=0 / qpmax=69 / qpstep=4 / ip_ratio=1.40 / aq=1:1.00
Language : English
Default : Yes
Forced : No

Audio
ID : 2
Format : DTS
Format/Info : Digital Theater Systems
Mode : 16
Format settings, Endianness : Big
Codec ID : A_DTS
Duration : 2 h 5 min
Bit rate mode : Constant
Bit rate : 1 509 kb/s
Channel(s) : 6 channels
Channel positions : Front: L C R, Side: L R, LFE
Sampling rate : 48.0 kHz
Frame rate : 93.750 FPS (512 spf)
Bit depth : 16 bits
Compression mode : Lossy
Stream size : 1.32 GiB (29%)
Title : English
Language : English
Default : Yes
Forced : No

Text #1
ID : 3
Format : PGS
Muxing mode : zlib
Codec ID : S_HDMV/PGS
Codec ID/Info : Picture based subtitle format used on BDs/HD-DVDs
Duration : 2 h 4 min
Bit rate : 5 082 b/s
Count of elements : 2052
Stream size : 4.53 MiB (0%)
Title : Arabic
Language : Arabic
Default : No
Forced : No

Text #2
ID : 4
Format : PGS
Muxing mode : zlib
Codec ID : S_HDMV/PGS
Codec ID/Info : Picture based subtitle format used on BDs/HD-DVDs
Duration : 2 h 4 min
Bit rate : 6 958 b/s
Count of elements : 1924
Stream size : 6.20 MiB (0%)
Title : Danish
Language : Danish
Default : No
Forced : No

Text #3
ID : 5
Format : PGS
Muxing mode : zlib
Codec ID : S_HDMV/PGS
Codec ID/Info : Picture based subtitle format used on BDs/HD-DVDs
Duration : 2 h 4 min
Bit rate : 6 283 b/s
Count of elements : 2014
Stream size : 5.60 MiB (0%)
Title : Finnish
Language : Finnish
Default : No
Forced : No

Text #4
ID : 6
Format : PGS
Muxing mode : zlib
Codec ID : S_HDMV/PGS
Codec ID/Info : Picture based subtitle format used on BDs/HD-DVDs
Duration : 2 h 4 min
Bit rate : 6 843 b/s
Count of elements : 1922
Stream size : 6.10 MiB (0%)
Title : Icelandic
Language : Icelandic
Default : No
Forced : No

Text #5
ID : 7
Format : PGS
Muxing mode : zlib
Codec ID : S_HDMV/PGS
Codec ID/Info : Picture based subtitle format used on BDs/HD-DVDs
Duration : 2 h 4 min
Bit rate : 6 795 b/s
Count of elements : 1922
Stream size : 6.06 MiB (0%)
Title : Norwegian
Language : Norwegian
Default : No
Forced : No

Text #6
ID : 8
Format : PGS
Muxing mode : zlib
Codec ID : S_HDMV/PGS
Codec ID/Info : Picture based subtitle format used on BDs/HD-DVDs
Duration : 2 h 4 min
Bit rate : 7 462 b/s
Count of elements : 1994
Stream size : 6.65 MiB (0%)
Title : Portuguese
Language : Portuguese
Default : No
Forced : No

Text #7
ID : 9
Format : PGS
Muxing mode : zlib
Codec ID : S_HDMV/PGS
Codec ID/Info : Picture based subtitle format used on BDs/HD-DVDs
Duration : 2 h 4 min
Bit rate : 6 682 b/s
Count of elements : 1864
Stream size : 5.96 MiB (0%)
Title : Romany
Language : rom
Default : No
Forced : No

Text #8
ID : 10
Format : PGS
Muxing mode : zlib
Codec ID : S_HDMV/PGS
Codec ID/Info : Picture based subtitle format used on BDs/HD-DVDs
Duration : 2 h 4 min
Bit rate : 7 073 b/s
Count of elements : 1948
Stream size : 6.30 MiB (0%)
Title : Spanish
Language : Spanish
Default : No
Forced : No

Text #9
ID : 11
Format : PGS
Muxing mode : zlib
Codec ID : S_HDMV/PGS
Codec ID/Info : Picture based subtitle format used on BDs/HD-DVDs
Duration : 2 h 4 min
Bit rate : 6 453 b/s
Count of elements : 1700
Stream size : 5.75 MiB (0%)
Title : Swedish
Language : Swedish
Default : No
Forced : No

Menu
00:00:00.000 : en:00:00:00.000
00:04:07.164 : en:00:04:07.164
00:14:44.133 : en:00:14:44.133
00:23:15.603 : en:00:23:15.603
00:26:52.694 : en:00:26:52.694
00:36:12.212 : en:00:36:12.212
00:38:35.980 : en:00:38:35.980
00:46:52.727 : en:00:46:52.727
00:53:03.764 : en:00:53:03.764
01:04:54.182 : en:01:04:54.182
01:13:47.423 : en:01:13:47.423
01:19:00.945 : en:01:19:00.945
01:22:40.455 : en:01:22:40.455
01:25:50.896 : en:01:25:50.896
01:28:11.828 : en:01:28:11.828
01:31:42.414 : en:01:31:42.414
01:43:13.062 : en:01:43:13.062
01:48:18.033 : en:01:48:18.033
01:54:48.381 : en:01:54:48.381
01:58:03.660 : en:01:58:03.660



General
Unique ID : 206922612319953836575100755873133478261 (0x9BABD8743F2415E49C291E053843C175)
Complete name : D:DownloadsMov-HDTron.Legacy.2010.iNTERNAL.1080p.BluRay.x264-MOOVEETron.Legacy.2010.iNTERNAL.1080p.BluRay.x264-MOOVEE.mkv
Format : Matroska
Format version : Version 4 / Version 2
File size : 14.6 GiB
Duration : 2 h 5 min
Overall bit rate : 16.7 Mb/s
Encoded date : UTC 2016-12-07 20:44:17
Writing application : mkvmerge v9.3.1 ('Mask Machine') 64bit
Writing library : libebml v1.3.4 + libmatroska v1.4.5

Video
ID : 1
Format : AVC
Format/Info : Advanced Video Codec
Format profile : [email protected]
Format settings, CABAC : Yes
Format settings, ReFrames : 4 frames
Codec ID : V_MPEG4/ISO/AVC
Duration : 2 h 5 min
Bit rate : 13.3 Mb/s
Width : 1 920 pixels
Height : 1 080 pixels
Display aspect ratio : 16:9
Frame rate mode : Constant
Frame rate : 23.976 (24000/1001) FPS
Color space : YUV
Chroma subsampling : 4:2:0
Bit depth : 8 bits
Scan type : Progressive
Bits/(Pixel*Frame) : 0.268
Stream size : 11.6 GiB (80%)
Writing library : x264 core 148 r2744kMod b97ae06
Encoding settings : cabac=1 / ref=4 / deblock=1:0:0 / analyse=0x3:0x133 / me=umh / subme=9 / psy=1 / fade_compensate=0.00 / psy_rd=1.00:0.00 / mixed_ref=1 / me_range=16 / chroma_me=1 / trellis=2 / 8x8dct=1 / cqm=0 / deadzone=21,11 / fast_pskip=1 / chroma_qp_offset=-2 / threads=18 / lookahead_threads=1 / sliced_threads=0 / nr=0 / decimate=1 / interlaced=0 / bluray_compat=0 / constrained_intra=0 / bframes=3 / b_pyramid=2 / b_adapt=2 / b_bias=0 / direct=3 / weightb=1 / open_gop=0 / weightp=2 / keyint=250 / keyint_min=23 / scenecut=40 / intra_refresh=0 / rc_lookahead=60 / rc=crf / mbtree=1 / crf=19.0000 / qcomp=0.60 / qpmin=0 / qpmax=69 / qpstep=4 / ip_ratio=1.40 / aq=1:1.00
Language : English
Default : Yes
Forced : No

Audio
ID : 2
Format : DTS
Format/Info : Digital Theater Systems
Format profile : MA / Core
Mode : 16
Format settings, Endianness : Big
Codec ID : A_DTS
Duration : 2 h 5 min
Bit rate mode : Variable / Constant
Bit rate : 3 328 kb/s / 1 509 kb/s
Channel(s) : 8 channels / 6 channels
Channel positions : Front: L C R, Side: L R, Back: L R, LFE / Front: L C R, Side: L R, LFE
Sampling rate : 48.0 kHz
Frame rate : 93.750 FPS (512 spf)
Bit depth : 16 bits
Compression mode : Lossless / Lossy
Stream size : 2.91 GiB (20%)
Title : English
Language : English
Default : Yes
Forced : No

Text #1
ID : 3
Format : PGS
Muxing mode : zlib
Codec ID : S_HDMV/PGS
Codec ID/Info : Picture based subtitle format used on BDs/HD-DVDs
Duration : 2 h 4 min
Bit rate : 5 241 b/s
Count of elements : 2052
Stream size : 4.67 MiB (0%)
Title : Arabic
Language : Arabic
Default : No
Forced : No

Text #2
ID : 4
Format : PGS
Muxing mode : zlib
Codec ID : S_HDMV/PGS
Codec ID/Info : Picture based subtitle format used on BDs/HD-DVDs
Duration : 2 h 4 min
Bit rate : 6 061 b/s
Count of elements : 1924
Stream size : 5.40 MiB (0%)
Title : Danish
Language : Danish
Default : No
Forced : No

Text #3
ID : 5
Format : PGS
Muxing mode : zlib
Codec ID : S_HDMV/PGS
Codec ID/Info : Picture based subtitle format used on BDs/HD-DVDs
Duration : 2 h 4 min
Bit rate : 6 553 b/s
Count of elements : 2124
Stream size : 5.84 MiB (0%)
Title : English
Language : English
Default : No
Forced : No

Text #4
ID : 6
Format : PGS
Muxing mode : zlib
Codec ID : S_HDMV/PGS
Codec ID/Info : Picture based subtitle format used on BDs/HD-DVDs
Duration : 2 h 4 min
Bit rate : 5 254 b/s
Count of elements : 2014
Stream size : 4.68 MiB (0%)
Title : Finnish
Language : Finnish
Default : No
Forced : No

Text #5
ID : 7
Format : PGS
Muxing mode : zlib
Codec ID : S_HDMV/PGS
Codec ID/Info : Picture based subtitle format used on BDs/HD-DVDs
Duration : 2 h 4 min
Bit rate : 6 039 b/s
Count of elements : 1922
Stream size : 5.38 MiB (0%)
Title : Icelandic
Language : Icelandic
Default : No
Forced : No

Text #6
ID : 8
Format : PGS
Muxing mode : zlib
Codec ID : S_HDMV/PGS
Codec ID/Info : Picture based subtitle format used on BDs/HD-DVDs
Duration : 2 h 4 min
Bit rate : 5 899 b/s
Count of elements : 1922
Stream size : 5.26 MiB (0%)
Title : Norwegian
Language : Norwegian
Default : No
Forced : No

Text #7
ID : 9
Format : PGS
Muxing mode : zlib
Codec ID : S_HDMV/PGS
Codec ID/Info : Picture based subtitle format used on BDs/HD-DVDs
Duration : 2 h 4 min
Bit rate : 6 325 b/s
Count of elements : 1994
Stream size : 5.64 MiB (0%)
Title : Portuguese
Language : Portuguese
Default : No
Forced : No

Text #8
ID : 10
Format : PGS
Muxing mode : zlib
Codec ID : S_HDMV/PGS
Codec ID/Info : Picture based subtitle format used on BDs/HD-DVDs
Duration : 2 h 4 min
Bit rate : 5 800 b/s
Count of elements : 1864
Stream size : 5.17 MiB (0%)
Title : Romany
Language : rom
Default : No
Forced : No

Text #9
ID : 11
Format : PGS
Muxing mode : zlib
Codec ID : S_HDMV/PGS
Codec ID/Info : Picture based subtitle format used on BDs/HD-DVDs
Duration : 2 h 4 min
Bit rate : 6 042 b/s
Count of elements : 1948
Stream size : 5.39 MiB (0%)
Title : Spanish
Language : Spanish
Default : No
Forced : No

Text #10
ID : 12
Format : PGS
Muxing mode : zlib
Codec ID : S_HDMV/PGS
Codec ID/Info : Picture based subtitle format used on BDs/HD-DVDs
Duration : 2 h 4 min
Bit rate : 5 457 b/s
Count of elements : 1700
Stream size : 4.86 MiB (0%)
Title : Swedish
Language : Swedish
Default : No
Forced : No

Menu
00:00:00.000 : en:00:00:00.000
00:04:07.164 : en:00:04:07.164
00:14:44.133 : en:00:14:44.133
00:23:15.603 : en:00:23:15.603
00:26:52.694 : en:00:26:52.694
00:36:12.212 : en:00:36:12.212
00:38:35.980 : en:00:38:35.980
00:46:52.727 : en:00:46:52.727
00:53:03.764 : en:00:53:03.764
01:04:54.182 : en:01:04:54.182
01:13:47.423 : en:01:13:47.423
01:19:00.945 : en:01:19:00.945
01:22:40.455 : en:01:22:40.455
01:25:50.896 : en:01:25:50.896
01:28:11.828 : en:01:28:11.828
01:31:42.414 : en:01:31:42.414
01:43:13.062 : en:01:43:13.062
01:48:18.033 : en:01:48:18.033
01:54:48.381 : en:01:54:48.381
01:58:03.660 : en:01:58:03.660




NitroFlare (Single links)
http://www.nitroflare.com/view/4EB31BACED55A94/Tron.Legacy.2010.iNTERNAL.720p.BluRay.x264-MOOVEE.mkv

http://www.nitroflare.com/view/CDCD314DDDC0BA7/Tron.Legacy.2010.iNTERNAL.1080p.BluRay.x264-MOOVEE.mkv




http://www.nitroflare.com/view/0433A3E0E1C3539/Tron.Legacy.2010.iNTERNAL.720p.BluRay.x264-MOOVEE.part1.rar
http://www.nitroflare.com/view/7A99E258FF7CF17/Tron.Legacy.2010.iNTERNAL.720p.BluRay.x264-MOOVEE.part2.rar
http://www.nitroflare.com/view/C34E7497BA51B13/Tron.Legacy.2010.iNTERNAL.720p.BluRay.x264-MOOVEE.part3.rar
http://www.nitroflare.com/view/F26470CA3D28880/Tron.Legacy.2010.iNTERNAL.720p.BluRay.x264-MOOVEE.part4.rar
http://www.nitroflare.com/view/20697B8B6B90A5A/Tron.Legacy.2010.iNTERNAL.720p.BluRay.x264-MOOVEE.part5.rar


http://www.nitroflare.com/view/7BDA06A68549204/Tron.Legacy.2010.iNTERNAL.1080p.BluRay.x264-MOOVEE.part01.rar
http://www.nitroflare.com/view/2A407A2A0564148/Tron.Legacy.2010.iNTERNAL.1080p.BluRay.x264-MOOVEE.part02.rar
http://www.nitroflare.com/view/564D8C098F1329F/Tron.Legacy.2010.iNTERNAL.1080p.BluRay.x264-MOOVEE.part03.rar
http://www.nitroflare.com/view/DF192660DF07168/Tron.Legacy.2010.iNTERNAL.1080p.BluRay.x264-MOOVEE.part04.rar
http://www.nitroflare.com/view/F3DBA9A35A46FB5/Tron.Legacy.2010.iNTERNAL.1080p.BluRay.x264-MOOVEE.part05.rar
http://www.nitroflare.com/view/0003B6100F9A266/Tron.Legacy.2010.iNTERNAL.1080p.BluRay.x264-MOOVEE.part06.rar
http://www.nitroflare.com/view/28B8A78CCEEA418/Tron.Legacy.2010.iNTERNAL.1080p.BluRay.x264-MOOVEE.part07.rar
http://www.nitroflare.com/view/3DFD78C7E1A582B/Tron.Legacy.2010.iNTERNAL.1080p.BluRay.x264-MOOVEE.part08.rar
http://www.nitroflare.com/view/66D08CEEBAD2FB4/Tron.Legacy.2010.iNTERNAL.1080p.BluRay.x264-MOOVEE.part09.rar
http://www.nitroflare.com/view/157E43C4388292D/Tron.Legacy.2010.iNTERNAL.1080p.BluRay.x264-MOOVEE.part10.rar
http://www.nitroflare.com/view/7C446DA708C507C/Tron.Legacy.2010.iNTERNAL.1080p.BluRay.x264-MOOVEE.part11.rar
http://www.nitroflare.com/view/E867237911700B1/Tron.Legacy.2010.iNTERNAL.1080p.BluRay.x264-MOOVEE.part12.rar
http://www.nitroflare.com/view/2E13139CE962F30/Tron.Legacy.2010.iNTERNAL.1080p.BluRay.x264-MOOVEE.part13.rar
http://www.nitroflare.com/view/D17A510DF847D55/Tron.Legacy.2010.iNTERNAL.1080p.BluRay.x264-MOOVEE.part14.rar
http://www.nitroflare.com/view/27F717837E9480A/Tron.Legacy.2010.iNTERNAL.1080p.BluRay.x264-MOOVEE.part15.rar