Вход в свой аккаунт

Или войдите через соц. сети

Spectral (2016)


Spectral (2016)
WEBRip | MKV / [email protected] kb/s | 720x304 | 1h 47mn | 1.44 GB
Italian: AC3, 448 kb/s (6 ch) | Subtitles: Italian (forced)
Genre: Action | Sci-Fi | Thriller

Una squadra speciale di agenti operativi viene mandata a combattere contro gli esseri soprannaturali che hanno preso possesso di una cittГ .




General
Unique ID : 253829421592032379464531388929157057998 (0xBEF5C4B49EFE0D84B66CB7F4441B4DCE)
Complete name : C:Spectral.2016.iTALiAN.NF.WEBRiP.XviD-HDi.mkv
Format : Matroska
Format version : Version 4 / Version 2
File size : 1.44 GiB
Duration : 1 h 47 min
Overall bit rate : 1 919 kb/s
Encoded date : UTC 2016-12-10 05:37:40
Writing application : mkvmerge v8.3.0 ('Over the Horizon') 64bit
Writing library : libebml v1.3.1 + libmatroska v1.4.2

Video
ID : 1
Format : MPEG-4 Visual
Format profile : Advanced [email protected]
Format settings, BVOP : 2
Format settings, QPel : No
Format settings, GMC : No warppoints
Format settings, Matrix : Default (H.263)
Muxing mode : Packed bitstream
Codec ID : V_MS/VFW/FOURCC / XVID
Codec ID/Hint : XviD
Duration : 1 h 47 min
Bit rate : 1 469 kb/s
Width : 720 pixels
Height : 304 pixels
Display aspect ratio : 2.35:1
Frame rate mode : Constant
Frame rate : 23.976 (23976/1000) FPS
Color space : YUV
Chroma subsampling : 4:2:0
Bit depth : 8 bits
Scan type : Progressive
Compression mode : Lossy
Bits/(Pixel*Frame) : 0.280
Stream size : 1.10 GiB (77%)
Writing library : XviD 66
Default : Yes
Forced : No

Audio
ID : 2
Format : AC-3
Format/Info : Audio Coding 3
Mode extension : CM (complete main)
Format settings, Endianness : Big
Codec ID : A_AC3
Duration : 1 h 47 min
Bit rate mode : Constant
Bit rate : 448 kb/s
Channel(s) : 6 channels
Channel positions : Front: L C R, Side: L R, LFE
Sampling rate : 48.0 kHz
Frame rate : 31.250 FPS (1536 spf)
Compression mode : Lossy
Stream size : 345 MiB (23%)
Language : Italian
Default : Yes
Forced : No

Text
ID : 3
Format : UTF-8
Codec ID : S_TEXT/UTF8
Codec ID/Info : UTF-8 Plain Text
Duration : 1 h 44 min
Bit rate : 0 b/s
Count of elements : 5
Stream size : 195 Bytes (0%)
Title : Forced
Language : Italian
Default : Yes
Forced : Yes




Screenshots