Вход в свой аккаунт

Или войдите через соц. сети

Annabelle Hooper and the Ghosts of Nantucket (2016)


Annabelle Hooper and the Ghosts of Nantucket (2016)
HDRip | AVI | 720x400 | [email protected] kb/s | English [email protected] kb/s | 6 channels | 1 h 31 min | 1.59 GB
WEB-DL 720p | MKV | 1280x714 | [email protected] kb/s | English [email protected] kb/s | 6 channels | 1 h 31 min | 2.81 GB
Genre: Adventure, Family, Mystery

Vacationing on historic Nantucket Island, a teenage mystery writer and her friends must outwit two scheming thieves to solve the secret behind a legendary ghost story.



General
Complete name : J:TorrentsAnnabelle.Hooper.and.the.Ghosts.of.Nantucket.2016.HDRip.XviD.AC3-iFTAnnabelle.Hooper.and.the.Ghosts.of.Nantucket.2016.HDRip.XviD.AC3-iFT.avi
Format : AVI
Format/Info : Audio Video Interleave
File size : 1.60 GiB
Duration : 1 h 31 min
Overall bit rate : 2 487 kb/s
Writing application : VirtualDubMod 1.5.10.2 (build 2540/release)
Writing library : VirtualDubMod build 2540/release

Video
ID : 0
Format : MPEG-4 Visual
Format profile : Advanced [email protected]
Format settings, BVOP : 2
Format settings, QPel : No
Format settings, GMC : No warppoints
Format settings, Matrix : Default (H.263)
Muxing mode : Packed bitstream
Codec ID : XVID
Codec ID/Hint : XviD
Duration : 1 h 31 min
Bit rate : 2 094 kb/s
Width : 720 pixels
Height : 400 pixels
Display aspect ratio : 16:9
Frame rate : 23.976 (24000/1001) FPS
Color space : YUV
Chroma subsampling : 4:2:0
Bit depth : 8 bits
Scan type : Progressive
Compression mode : Lossy
Bits/(Pixel*Frame) : 0.303
Stream size : 1.34 GiB (84%)
Writing library : XviD 73

Audio
ID : 1
Format : AC-3
Format/Info : Audio Coding 3
Mode extension : CM (complete main)
Format settings, Endianness : Big
Codec ID : 2000
Duration : 1 h 31 min
Bit rate mode : Constant
Bit rate : 384 kb/s
Channel(s) : 6 channels
Channel positions : Front: L C R, Side: L R, LFE
Sampling rate : 48.0 kHz
Frame rate : 31.250 FPS (1536 spf)
Bit depth : 16 bits
Compression mode : Lossy
Stream size : 252 MiB (15%)
Alignment : Split accross interleaves
Interleave, duration : 42 ms (1.00 video frame)
Interleave, preload duration : 500 ms

General
Unique ID : 176609881626976593672172257537518843540 (0x84DDD37175B034E79913AA16CCD1B694)
Complete name : J:TorrentsAnnabelle.Hooper.and.the.Ghosts.of.Nantucket.2016.720p.WEB-DL.DD5.1.H264-FGTAnnabelle.Hooper.and.the.Ghosts.of.Nantucket.2016.720p.WEB-DL.DD5.1.H264-FGT.mkv
Format : Matroska
Format version : Version 4 / Version 2
File size : 2.81 GiB
Duration : 1 h 31 min
Overall bit rate : 4 384 kb/s
Movie name : Annabelle.Hooper.and.the.Ghosts.of.Nantucket.2016.720p.WEB-DL.DD5.1.H264-FGT
Encoded date : UTC 2016-12-11 10:31:58
Writing application : mkvmerge v9.4.0 ('Knurl') 64bit
Writing library : libebml v1.3.4 + libmatroska v1.4.5
Cover : Yes
Attachments : cover_land.jpg / small_cover.jpg / small_cover_land.jpg / cover.jpg

Video
ID : 1
Format : AVC
Format/Info : Advanced Video Codec
Format profile : [email protected]
Format settings, CABAC : No
Format settings, ReFrames : 2 frames
Codec ID : V_MPEG4/ISO/AVC
Duration : 1 h 31 min
Bit rate : 3 912 kb/s
Width : 1 280 pixels
Height : 714 pixels
Display aspect ratio : 16:9
Frame rate mode : Constant
Frame rate : 23.976 FPS
Color space : YUV
Chroma subsampling : 4:2:0
Bit depth : 8 bits
Scan type : Progressive
Bits/(Pixel*Frame) : 0.179
Stream size : 2.51 GiB (89%)
Title : Annabelle.Hooper.and.the.Ghosts.of.Nantucket.2016.720p.WEB-DL.DD5.1.H264-FGT
Language : English
Default : Yes
Forced : No
Color range : Limited
Color primaries : BT.709
Transfer characteristics : BT.709
Matrix coefficients : BT.709

Audio
ID : 2
Format : AC-3
Format/Info : Audio Coding 3
Mode extension : CM (complete main)
Format settings, Endianness : Big
Codec ID : A_AC3
Duration : 1 h 31 min
Bit rate mode : Constant
Bit rate : 384 kb/s
Channel(s) : 6 channels
Channel positions : Front: L C R, Side: L R, LFE
Sampling rate : 48.0 kHz
Frame rate : 31.250 FPS (1536 spf)
Bit depth : 16 bits
Compression mode : Lossy
Stream size : 252 MiB (9%)
Title : Annabelle.Hooper.and.the.Ghosts.of.Nantucket.2016.720p.WEB-DL.DD5.1.H264-FGT
Language : English
Default : Yes
Forced : No

Menu
00:00:00.000 : en:Chapter 1
00:11:23.683 : en:Chapter 2
00:19:37.176 : en:Chapter 3
00:30:56.855 : en:Chapter 4
00:39:09.347 : en:Chapter 5
00:49:42.980 : en:Chapter 6
01:00:00.597 : en:Chapter 7
01:09:29.165 : en:Chapter 8
01:20:30.826 : en:Chapter 9
01:29:24.359 : en:Chapter 10


HDRip Screenshots





WEB-DL 720p Screenshots