Вход в свой аккаунт

Или войдите через соц. сети

Lone Wolf and Cub: Baby Cart in the Land of Demons (1973)


Lone Wolf and Cub: Baby Cart in the Land of Demons (1973)
BDRip 720p | MKV | 1280x536 | [email protected] kb/s | Japanese [email protected] kb/s
Subs: English | 1 channel | 1 h 29 min | 3.27 GB
Genre: Action, Crime, Drama

Five warriors challenge Ogami to duels. Each holds a part of information needed to complete the assassination of a mad clan leader.



General
Unique ID : 190402394732051716445365655966563672014 (0x8F3E2AD76EE5E891B8DB5D77A05B9FCE)
Complete name : J:lone.wolf.and.cub.baby.cart.in.the.land.of.demons.1973.720p.bluray.x264-usury.mkv
Format : Matroska
Format version : Version 4 / Version 2
File size : 3.28 GiB
Duration : 1 h 29 min
Overall bit rate mode : Variable
Overall bit rate : 5 235 kb/s
Encoded date : UTC 2016-12-11 09:03:05
Writing application : mkvmerge v8.3.0 ('Over the Horizon') 64bit
Writing library : libebml v1.3.1 + libmatroska v1.4.2

Video
ID : 1
Format : AVC
Format/Info : Advanced Video Codec
Format profile : [email protected]
Format settings, CABAC : Yes
Format settings, ReFrames : 5 frames
Codec ID : V_MPEG4/ISO/AVC
Duration : 1 h 29 min
Bit rate : 4 589 kb/s
Width : 1 280 pixels
Height : 536 pixels
Display aspect ratio : 2.40:1
Frame rate mode : Constant
Frame rate : 23.976 (24000/1001) FPS
Color space : YUV
Chroma subsampling : 4:2:0
Bit depth : 8 bits
Scan type : Progressive
Bits/(Pixel*Frame) : 0.279
Stream size : 2.87 GiB (88%)
Writing library : x264 core 148 r2705 3f5ed56
Encoding settings : cabac=1 / ref=5 / deblock=1:0:0 / analyse=0x3:0x133 / me=umh / subme=9 / psy=1 / psy_rd=1.00:0.00 / mixed_ref=1 / me_range=16 / chroma_me=1 / trellis=1 / 8x8dct=1 / cqm=0 / deadzone=21,11 / fast_pskip=0 / chroma_qp_offset=-2 / threads=17 / lookahead_threads=1 / sliced_threads=0 / nr=0 / decimate=1 / interlaced=0 / bluray_compat=0 / constrained_intra=0 / bframes=3 / b_pyramid=2 / b_adapt=2 / b_bias=0 / direct=3 / weightb=1 / open_gop=0 / weightp=2 / keyint=250 / keyint_min=23 / scenecut=40 / intra_refresh=0 / rc_lookahead=50 / rc=2pass / mbtree=1 / bitrate=4589 / ratetol=1.0 / qcomp=0.60 / qpmin=0 / qpmax=69 / qpstep=4 / cplxblur=20.0 / qblur=0.5 / ip_ratio=1.40 / aq=1:1.00
Language : English
Default : Yes
Forced : No

Audio
ID : 2
Format : FLAC
Format/Info : Free Lossless Audio Codec
Codec ID : A_FLAC
Duration : 1 h 29 min
Bit rate mode : Variable
Bit rate : 644 kb/s
Channel(s) : 1 channel
Channel positions : Front: C
Sampling rate : 48.0 kHz
Frame rate : 11.719 FPS (4096 spf)
Bit depth : 24 bits
Stream size : 413 MiB (12%)
Writing library : libFLAC 1.2.1 (UTC 2007-09-17)
Language : Japanese
Default : Yes
Forced : No

Text
ID : 3
Format : UTF-8
Codec ID : S_TEXT/UTF8
Codec ID/Info : UTF-8 Plain Text
Duration : 1 h 29 min
Bit rate : 27 b/s
Count of elements : 560
Stream size : 18.1 KiB (0%)
Title : forced
Language : English
Default : Yes
Forced : Yes

Menu
00:00:00.000 : en:00:00:00.000
00:02:07.711 : en:00:02:07.711
00:05:55.730 : en:00:05:55.730
00:11:06.332 : en:00:11:06.332
00:15:36.894 : en:00:15:36.894
00:20:26.183 : en:00:20:26.183
00:23:57.728 : en:00:23:57.728
00:29:55.669 : en:00:29:55.669
00:34:18.348 : en:00:34:18.348
00:37:14.566 : en:00:37:14.566
00:46:07.264 : en:00:46:07.264
00:47:50.993 : en:00:47:50.993
00:52:49.291 : en:00:52:49.291
00:59:51.922 : en:00:59:51.922
01:01:41.114 : en:01:01:41.114
01:04:42.962 : en:01:04:42.962
01:09:31.209 : en:01:09:31.209
01:12:32.974 : en:01:12:32.974
01:16:51.899 : en:01:16:51.899
01:23:27.628 : en:01:23:27.628
01:26:21.843 : en:01:26:21.843


BDRip 720p Screenshots