Вход в свой аккаунт

Или войдите через соц. сети

Aftermath S01E12 (2016)


Aftermath S01E12 (2016)
720p WEB-DL | MKV | 1280x720 | x264 @ 3953 Kbps | English AC3 (6 ch) @ 384 Kbps | 42mn | 1.33 GB
1080p WEB-DL | MKV | 1920x1080 | x264 @ 5026 Kbps | English AC3 (6 ch) @ 384 Kbps | 42mn | 1.65 GB
Sub: English
Genre: Sci-Fi

Now That We Talk of Dying – Pursued by new enemies and racing against the clock, the Copelands need to find the man who holds all the answers.






General
Unique ID : 183547916941602623891313390249360307810 (0x8A160AFE8F4B1ABB978FF63E3B9D3662)
Complete name : D:DownloadsTV-HDAftermath.2016.S01E12.Now.That.We.Talk.of.Dying.1080p.WEB-DL.DD5.1.H264-NTbAftermath.2016.S01E12.Now.That.We.Talk.of.Dying.720p.WEB-DL.DD5.1.H264-NTb.mkv
Format : Matroska
Format version : Version 4 / Version 2
File size : 1.33 GiB
Duration : 42 min 53 s
Overall bit rate : 4 425 kb/s
Encoded date : UTC 2016-12-11 06:11:28
Writing application : mkvmerge v9.5.0 ('Quiet Fire') 64bit
Writing library : libebml v1.3.4 + libmatroska v1.4.5
Cover : Yes
Attachments : small_cover.jpg / cover.jpg / cover_land.jpg / small_cover_land.jpg
Encoded/Released by : [email protected]/HDB
Group : NTb

Video
ID : 1
Format : AVC
Format/Info : Advanced Video Codec
Format profile : [email protected]
Format settings, CABAC : No
Format settings, ReFrames : 2 frames
Codec ID : V_MPEG4/ISO/AVC
Duration : 42 min 53 s
Bit rate : 3 953 kb/s
Width : 1 280 pixels
Height : 720 pixels
Display aspect ratio : 16:9
Frame rate mode : Constant
Frame rate : 23.976 FPS
Color space : YUV
Chroma subsampling : 4:2:0
Bit depth : 8 bits
Scan type : Progressive
Bits/(Pixel*Frame) : 0.179
Stream size : 1.18 GiB (89%)
Language : English
Default : Yes
Forced : No
Color range : Limited
Color primaries : BT.709
Transfer characteristics : BT.709
Matrix coefficients : BT.709

Audio
ID : 2
Format : AC-3
Format/Info : Audio Coding 3
Mode extension : CM (complete main)
Format settings, Endianness : Big
Codec ID : A_AC3
Duration : 42 min 53 s
Bit rate mode : Constant
Bit rate : 384 kb/s
Channel(s) : 6 channels
Channel positions : Front: L C R, Side: L R, LFE
Sampling rate : 48.0 kHz
Frame rate : 31.250 FPS (1536 spf)
Bit depth : 16 bits
Compression mode : Lossy
Stream size : 118 MiB (9%)
Language : English
Default : Yes
Forced : No

Text
ID : 3
Format : UTF-8
Codec ID : S_TEXT/UTF8
Codec ID/Info : UTF-8 Plain Text
Language : English
Default : No
Forced : No




General
Unique ID : 249422122473852418120930337794349211242 (0xBBA4F41511E5889EBD0EBCAA6D6E1E6A)
Complete name : D:DownloadsTV-HDAftermath.2016.S01E12.Now.That.We.Talk.of.Dying.1080p.WEB-DL.DD5.1.H264-NTbAftermath.2016.S01E12.Now.That.We.Talk.of.Dying.1080p.WEB-DL.DD5.1.H264-NTb.mkv
Format : Matroska
Format version : Version 4 / Version 2
File size : 1.65 GiB
Duration : 42 min 53 s
Overall bit rate : 5 520 kb/s
Encoded date : UTC 2016-12-11 06:10:41
Writing application : mkvmerge v9.5.0 ('Quiet Fire') 64bit
Writing library : libebml v1.3.4 + libmatroska v1.4.5
Cover : Yes
Attachments : small_cover.jpg / cover.jpg / cover_land.jpg / small_cover_land.jpg
Encoded/Released by : [email protected]/HDB
Group : NTb

Video
ID : 1
Format : AVC
Format/Info : Advanced Video Codec
Format profile : [email protected]
Format settings, CABAC : Yes
Format settings, ReFrames : 4 frames
Codec ID : V_MPEG4/ISO/AVC
Duration : 42 min 53 s
Bit rate : 5 026 kb/s
Width : 1 920 pixels
Height : 1 080 pixels
Display aspect ratio : 16:9
Frame rate mode : Constant
Frame rate : 23.976 FPS
Color space : YUV
Chroma subsampling : 4:2:0
Bit depth : 8 bits
Scan type : Progressive
Bits/(Pixel*Frame) : 0.101
Stream size : 1.51 GiB (91%)
Language : English
Default : Yes
Forced : No
Color range : Limited
Color primaries : BT.709
Transfer characteristics : BT.709
Matrix coefficients : BT.709

Audio
ID : 2
Format : AC-3
Format/Info : Audio Coding 3
Mode extension : CM (complete main)
Format settings, Endianness : Big
Codec ID : A_AC3
Duration : 42 min 53 s
Bit rate mode : Constant
Bit rate : 384 kb/s
Channel(s) : 6 channels
Channel positions : Front: L C R, Side: L R, LFE
Sampling rate : 48.0 kHz
Frame rate : 31.250 FPS (1536 spf)
Bit depth : 16 bits
Compression mode : Lossy
Stream size : 118 MiB (7%)
Language : English
Default : Yes
Forced : No

Text
ID : 3
Format : UTF-8
Codec ID : S_TEXT/UTF8
Codec ID/Info : UTF-8 Plain Text
Language : English
Default : No
Forced : No




NitroFlare (Single links)
http://www.nitroflare.com/view/185BF8A4C57D99D/Aftermath.2016.S01E12.Now.That.We.Talk.of.Dying.1080p.WEB-DL.DD5.1.H264-NTb.mkv
http://www.nitroflare.com/view/2742978D3071B42/Aftermath.2016.S01E12.Now.That.We.Talk.of.Dying.720p.WEB-DL.DD5.1.H264-NTb.mkv