Вход в свой аккаунт

Или войдите через соц. сети

Love Finds You in Charm (2015)


Love Finds You in Charm (2015)
HDTV 720p | MP4 | 1280x720 | [email protected] kb/s | English [email protected] kb/s
2 channels | 1 h 27 min | 1.08 GB
Genre: Drama

A young Amish woman, who isn't satisfied with her path at home, visits a cousin for the summer. Over the summer, she is exposed to another world, finds friendship and more. Soon she must choose and come to terms with the life she wants.



General
Complete name : J:TorrentsLove Finds You In Charm (2015) 720p HDTV X264 Solar.mp4
Format : MPEG-4
Format profile : Base Media / Version 2
Codec ID : mp42 (isom/iso2/avc1/mp41)
File size : 1.09 GiB
Duration : 1 h 27 min
Overall bit rate mode : Variable
Overall bit rate : 1 767 kb/s
Encoded date : UTC 2016-09-01 01:17:39
Tagged date : UTC 2016-09-01 01:17:39
Writing application : HandBrake 0.10.5 2016021100

Video
ID : 1
Format : AVC
Format/Info : Advanced Video Codec
Format profile : [email protected]
Format settings, CABAC : Yes
Format settings, ReFrames : 8 frames
Codec ID : avc1
Codec ID/Info : Advanced Video Coding
Duration : 1 h 27 min
Bit rate : 1 600 kb/s
Width : 1 280 pixels
Height : 720 pixels
Display aspect ratio : 16:9
Frame rate mode : Constant
Frame rate : 29.970 (30000/1001) FPS
Color space : YUV
Chroma subsampling : 4:2:0
Bit depth : 8 bits
Scan type : Progressive
Bits/(Pixel*Frame) : 0.058
Stream size : 1 007 MiB (91%)
Writing library : x264 core 142 r2479 dd79a61
Encoding settings : cabac=1 / ref=8 / deblock=1:0:0 / analyse=0x1:0x131 / me=umh / subme=9 / psy=1 / psy_rd=1.00:0.00 / mixed_ref=1 / me_range=16 / chroma_me=1 / trellis=2 / 8x8dct=0 / cqm=0 / deadzone=21,11 / fast_pskip=1 / chroma_qp_offset=-2 / threads=6 / lookahead_threads=1 / sliced_threads=0 / nr=0 / decimate=1 / interlaced=0 / bluray_compat=0 / constrained_intra=0 / bframes=3 / b_pyramid=2 / b_adapt=2 / b_bias=0 / direct=3 / weightb=1 / open_gop=0 / weightp=2 / keyint=300 / keyint_min=30 / scenecut=40 / intra_refresh=0 / rc_lookahead=60 / rc=2pass / mbtree=1 / bitrate=1600 / ratetol=1.0 / qcomp=0.60 / qpmin=0 / qpmax=69 / qpstep=4 / cplxblur=20.0 / qblur=0.5 / vbv_maxrate=20000 / vbv_bufsize=25000 / nal_hrd=none / filler=0 / ip_ratio=1.40 / aq=1:1.00
Encoded date : UTC 2016-09-01 01:17:39
Tagged date : UTC 2016-09-01 01:17:39
Color range : Limited
Color primaries : BT.709
Transfer characteristics : BT.709
Matrix coefficients : BT.709
Menus : 3

Audio
ID : 2
Format : AAC
Format/Info : Advanced Audio Codec
Format profile : LC
Codec ID : 40
Duration : 1 h 27 min
Bit rate mode : Variable
Bit rate : 160 kb/s
Channel(s) : 2 channels
Channel positions : Front: L R
Sampling rate : 48.0 kHz
Frame rate : 46.875 FPS (1024 spf)
Compression mode : Lossy
Stream size : 101 MiB (9%)
Title : Stereo / Stereo
Language : English
Default : Yes
Alternate group : 1
Encoded date : UTC 2016-09-01 01:17:39
Tagged date : UTC 2016-09-01 01:17:39
Menus : 3

Menu
ID : 3
Codec ID : text
Duration : 1 h 27 min
Language : English
Encoded date : UTC 2016-09-01 01:17:39
Tagged date : UTC 2016-09-01 01:17:39
Bit rate mode : CBR
Menu For : 1,2
00:00:00.000 : Chapter 1
00:12:23.142 : Chapter 2
00:21:50.509 : Chapter 3
00:28:34.546 : Chapter 4
00:39:02.640 : Chapter 5
00:46:56.714 : Chapter 6
00:56:33.757 : Chapter 7
01:10:34.797 : Chapter 8
01:19:31.767 : Chapter 9


HDTV 720p Screenshots