Live 9 409: Remixing Froya (2016)


Live 9 409: Remixing Froya
WEBRip | English | MP4 | 1280 x 720 | AVC ~263 kbps | 30 fps
AAC | 96 Kbps | 44.1 KHz | 2 channels | 01:36:00 | 304.5 MB
Genre: Video Tutorial / Sound Processing

Learn the art of remixing in Ableton Live! Join Ableton Live Certified Trainer, Rishabh Rajan (AKA code:MONO), as he remixes electro-pop artist and songwriter Froya’s "Uncomprehended Child" in this 25-tutorial remixing masterclass! There’s so much to learn about remixing: audio editing, re-drumming, chopping, merging, rearranging, glitching, reharmonizing and then putting everything back together again in some kind of exciting and coherent way! It’s a lot of hard work and a lot of fun at the same time. And that combination comes through big-time in this Ableton Live remixing course by Rishabh Rajan.
Wearing his code:MONO moniker, Rishabh shows you all the amazing remix tools that are at your disposal in Ableton Live. First off, you listen to Froya’s (Michelle Lee’s) original production. This is where Rishabh analyzes the song’s structure, harmonic progressions and melodies. Then, he grabs the original stems that he wants to work with and begins building a completely new production.
Watch and listen as Rishabh describes the techniques he employs to build the remix from its intro, verses, chorus, drop, bridge and outro. It’s always a great experience to watch a remixer like Rishabh at work as he carefully creates a new version of a song while, at the same time, respecting and cherishing the original song’s power and intent. Learn the art of remixing in this 25-tutorial course!

Content:
01 Introduction (01:50)
02 Original Tune (03:37)
03 Original Structure (03:43)
04 Remixed Tune (03:38)
05 Remixed Tune Structure (01:23)
06 Intro Vocals (04:46)
07 Intro Synths (04:44)
08 Intro Fillers & Risers (02:17)
09 Intro Drums (03:14)
10 Verse Vocals (02:14)
11 Verse Synth (02:54)
12 Verse Fillers & Risers (03:05)
13 Verse Bass & Drums (03:03)
14 Drop Vocals (03:53)
15 Drop Synths (02:10)
16 Drop Fills (02:28)
17 Verse 2 Section (03:58)
18 Pre Chorus Section (02:19)
19 Chorus Section (03:17)
20 Verse 3 Section (06:17)
21 Bridge Section (08:16)
22 Outro Section (05:17)
23 Bussing Tracks for Mix Preparation (04:55)
24 The Mixing Process (05:37)
25 The Mastering Process (06:29)

also You can look my other last:

General
Complete name : 20. Verse 3 Section.mp4
Format : MPEG-4
Format profile : Base Media / Version 2
Codec ID : mp42 (mp42/isom/avc1)
File size : 16.5 MiB
Duration : 6mn 17s
Overall bit rate : 366 Kbps
Encoded date : UTC 2016-02-01 12:23:26
Tagged date : UTC 2016-02-01 20:23:26
Writing application : Sorenson Squeeze
Comment : Encoded by

Video
ID : 2
Format : AVC
Format/Info : Advanced Video Codec
Format profile : [email protected]
Format settings, CABAC : Yes
Format settings, ReFrames : 4 frames
Codec ID : avc1
Codec ID/Info : Advanced Video Coding
Duration : 6mn 17s
Bit rate : 263 Kbps
Width : 1 280 pixels
Height : 720 pixels
Display aspect ratio : 16:9
Frame rate mode : Constant
Frame rate : 30.000 fps
Color space : YUV
Chroma subsampling : 4:2:0
Bit depth : 8 bits
Scan type : Progressive
Bits/(Pixel*Frame) : 0.010
Stream size : 11.8 MiB (72%)
Writing library : x264 core 129
Encoding settings : cabac=1 / ref=3 / deblock=1:0:0 / analyse=0x1:0x111 / me=hex / subme=7 / psy=1 / psy_rd=1.00:0.00 / mixed_ref=1 / me_range=16 / chroma_me=1 / trellis=1 / 8x8dct=0 / cqm=0 / deadzone=21,11 / fast_pskip=1 / chroma_qp_offset=-2 / threads=18 / lookahead_threads=3 / sliced_threads=0 / nr=0 / decimate=1 / interlaced=0 / bluray_compat=0 / constrained_intra=0 / bframes=3 / b_pyramid=2 / b_adapt=1 / b_bias=0 / direct=1 / weightb=1 / open_gop=0 / weightp=2 / keyint=300 / keyint_min=30 / scenecut=45 / intra_refresh=0 / rc_lookahead=40 / rc=crf / mbtree=1 / crf=23.0 / qcomp=0.60 / qpmin=0 / qpmax=69 / qpstep=4 / ip_ratio=1.40 / aq=1:1.00
Encoded date : UTC 2016-02-01 12:23:26
Tagged date : UTC 2016-02-01 12:23:26

Audio
ID : 1
Format : AAC
Format/Info : Advanced Audio Codec
Format profile : LC
Codec ID : 40
Duration : 6mn 16s
Bit rate mode : Constant
Bit rate : 96.0 Kbps
Channel(s) : 2 channels
Channel positions : Front: L R
Sampling rate : 44.1 KHz
Frame rate : 43.066 fps (1024 spf)
Compression mode : Lossy
Stream size : 4.31 MiB (26%)
Encoded date : UTC 2016-02-01 12:23:26
Tagged date : UTC 2016-02-01 12:23:26

Other #1
ID : 3
Type : Scene description
Format : System Core
Codec ID : 2
Duration : 6mn 17s
Encoded date : UTC 2016-02-01 12:23:26
Tagged date : UTC 2016-02-01 12:23:26

Other #2
ID : 4
Type : Object description
Format : System
Codec ID : 1
Duration : 6mn 17s
Encoded date : UTC 2016-02-01 12:23:26
Tagged date : UTC 2016-02-01 12:23:26

Screenshots





For more Exclusive material, Visit my

Previous Bianca Marconero - La prima cosa bella
Next The Art of Work [Audiobook]