John Lee Hooker - John Lee Hooker Sings Blues (Every One a Pearl) (1960)


John Lee Hooker - John Lee Hooker Sings Blues (Every One a Pearl) (1960)
EAC: flac (image) + cue + log | RAR, 3 %, 225,65 MB
mp3, 320 kbps | RAR, 3 %, 129,37 MB | Scans | RAR, 3 %, 13,38 MB
Label: KING records/Oldays Records | Cat №: ODR6014

CD reissue of 1960 album with three bonus tracks. Unfortunately no liner notes - according to some sources the JLH tracks were recorded 1948/49 in Detroit, in the back room studio of a record shop. Contracted to Modern Records, he used the name of Texas Slim on this session for the King label. Tracks 7, 8, 15 & 16 were actually recorded by Earl Hooker on November 26, 1952.

Exact Audio Copy V1.0 beta 3 from 29. August 2011

Отчёт EAC об извлечении, выполненном 28. июля 2015, 20:11

John Lee Hooker / John Lee Hooker Sings Blues

Дисковод: Optiarc DVD RW AD-7203S Adapter: 0 ID: 0

Режим чтения : Достоверность
Использование точного потока : Да
Отключение кэша аудио : Да
Использование указателей C2 : Нет

Коррекция смещения при чтении : 48
Способность читать области Lead-in и Lead-out : Нет
Заполнение пропущенных сэмплов тишиной : Да
Удаление блоков с тишиной в начале и конце : Нет
При вычислениях CRC использовались нулевые сэмплы : Да
Интерфейс : Встроенный Win32-интерфейс для Win NT/2000

Выходной формат : Пользовательский кодировщик
Выбранный битрейт : 128 kBit/s
Качество : Высокий
Добавление ID3-тега : Нет
Утилита сжатия : C:Program FilesExact Audio CopyFlacflac.exe
Дополнительные параметры : -V -8 -T "Date=%year%" -T "Genre=%genre%" %source%


TOC извлечённого CD

Трек | Старт | Длительность | Начальный сектор | Конечный сектор
---------------------------------------------------------------------
1 | 0:00.00 | 3:19.20 | 0 | 14944
2 | 3:19.20 | 3:06.49 | 14945 | 28943
3 | 6:25.69 | 3:03.63 | 28944 | 42731
4 | 9:29.57 | 2:48.66 | 42732 | 55397
5 | 12:18.48 | 3:03.06 | 55398 | 69128
6 | 15:21.54 | 3:12.53 | 69129 | 83581
7 | 18:34.32 | 2:43.32 | 83582 | 95838
8 | 21:17.64 | 2:18.53 | 95839 | 106241
9 | 23:36.42 | 2:53.39 | 106242 | 119255
10 | 26:30.06 | 3:02.66 | 119256 | 132971
11 | 29:32.72 | 3:13.21 | 132972 | 147467
12 | 32:46.18 | 3:01.15 | 147468 | 161057
13 | 35:47.33 | 3:03.23 | 161058 | 174805
14 | 38:50.56 | 2:54.03 | 174806 | 187858
15 | 41:44.59 | 2:49.53 | 187859 | 200586
16 | 44:34.37 | 2:33.00 | 200587 | 212061
17 | 47:07.37 | 3:11.21 | 212062 | 226407
18 | 50:18.58 | 2:50.54 | 226408 | 239211
19 | 53:09.37 | 3:01.14 | 239212 | 252800


Характеристики диапазона извлечения и сообщения об ошибках

Выбранный диапазон

Имя файла F:EACJohn Lee Hooker - John Lee Hooker Sings BluesJohn Lee Hooker - John Lee Hooker Sings BluesJohn Lee Hooker - John Lee Hooker Sings Blues.wav

Пиковый уровень 93.4 %
Скорость извлечения 3.9 X
Качество диапазона 100.0 %
CRC теста A30D82CC
CRC копии A30D82CC
Копирование... OK

Ошибок не произошло


AccurateRip: сводка

Трек 1 отсутствует в базе данных
Трек 2 отсутствует в базе данных
Трек 3 отсутствует в базе данных
Трек 4 отсутствует в базе данных
Трек 5 отсутствует в базе данных
Трек 6 отсутствует в базе данных
Трек 7 отсутствует в базе данных
Трек 8 отсутствует в базе данных
Трек 9 отсутствует в базе данных
Трек 10 отсутствует в базе данных
Трек 11 отсутствует в базе данных
Трек 12 отсутствует в базе данных
Трек 13 отсутствует в базе данных
Трек 14 отсутствует в базе данных
Трек 15 отсутствует в базе данных
Трек 16 отсутствует в базе данных
Трек 17 отсутствует в базе данных
Трек 18 отсутствует в базе данных
Трек 19 отсутствует в базе данных

Ни одного трека нет в базе AccurateRip

Конец отчёта

==== Контрольная сумма отчёта C98141CC407698297AA941FCDA2CB25941B42DACE709C1D35B05D643E03CE141 ====

Tracklist:
01. Wandering Blues [03:19]
02. I'm Gonna Kill That Woman [03:07]
03. Heart Trouble Blues [03:04]
04. Don't You Remember Me [02:49]
05. Slim's Stomp [03:03]
06. The Numbers [03:13]
07. Earl Hooker / Shake 'Em Up [02:43]
08. Earl Hooker / Happy Blues [02:19]
09. Nightmare Blues [02:54]
10. Moaning Blues [03:03]
11. Don't Go Baby [03:13]
12. Thinking Blues [03:01]
13. Late Last Night [03:03]
14. Devil's Jump [02:54]
15. Earl Hooker / Blue Guitar Blues [02:50]
16. Earl Hooker / Race Track [02:33]
Bonus Tracks:
17. Stomp Boogie [03:11]
18. Don't You Remember Me [02:51]
19. Late Last Night [03:01]
--------------------
Total Time: [56:11]

No mirrors, please!
Don't post these links at any web pages, please. Keep these files alive!
Not my rip! All Thanks to Од'Родр!

Welcome to !
Previous Sugaray Rayford - Southside (2015)
Next Sterling Koch - Rock Slide (2015)