Zora Young & Little Mike And The Tornadoes - Friday Night (2015)


Zora Young & Little Mike And The Tornadoes - Friday Night (2015)
EAC Rip | FLAC (Img) + Cue + Log ~ 367 Mb | MP3 CBR320 ~ 151 Mb
Scans Included (JPG, 600 dpi) | RAR 5% Recovery
Blues | ELROB Records #ER15234

This recording features Zora Young (Howlin Wolf's cousin) and one of the best blues singers in the world, teamed with one of the most prolific and veteran blues bands in the world. The music includes soulful original compositions and modern blues classics.

~ cdbaby.com

| |


***************


Track List:

01. I've Been a Fool Too Long [03:15]
02. A Fools Lament [04:28]
03. 44 Blues [04:52]
04. True Love Is Hard To Find [03:21]
05. I Love Chicago [05:39]
06. Friday Night [05:08]
07. Chains Of Love [06:52]
08. JustYour Fool [03:29]
09. Country Girl [05:47]
10. I'm Good [04:17]
11. Spann's Boogie [02:27]

Exact Audio Copy V1.0 beta 3 from 29. August 2011

Отчёт EAC об извлечении, выполненном 1. ноября 2015, 11:54

Zora Young & Little Mike and the Tornadoes / Friday Night

Дисковод: PLEXTOR DVDR PX-880SA Adapter: 1 ID: 0

Режим чтения : Достоверность
Использование точного потока : Да
Отключение кэша аудио : Да
Использование указателей C2 : Нет

Коррекция смещения при чтении : 6
Способность читать области Lead-in и Lead-out : Нет
Заполнение пропущенных сэмплов тишиной : Да
Удаление блоков с тишиной в начале и конце : Нет
При вычислениях CRC использовались нулевые сэмплы : Да
Интерфейс : Установленный внешний ASPI-интерфейс

Выходной формат : Пользовательский кодировщик
Выбранный битрейт : 1024 kBit/s
Качество : Высокий
Добавление ID3-тега : Нет
Утилита сжатия : C:Program FilesExact Audio CopyFLACFLAC.EXE
Дополнительные параметры : -8 -V -T "ARTIST=%artist%" -T "ALBUM=%albumtitle%" -T "DATE=%year%" -T "GENRE=%genre%" -T "COMMENT=ripped by izia1956" %source%


TOC извлечённого CD

Трек | Старт | Длительность | Начальный сектор | Конечный сектор
---------------------------------------------------------------------
1 | 0:00.00 | 3:14.55 | 0 | 14604
2 | 3:14.55 | 4:27.15 | 14605 | 34644
3 | 7:41.70 | 4:51.09 | 34645 | 56478
4 | 12:33.04 | 3:20.26 | 56479 | 71504
5 | 15:53.30 | 5:38.47 | 71505 | 96901
6 | 21:32.02 | 5:07.34 | 96902 | 119960
7 | 26:39.36 | 6:51.16 | 119961 | 150801
8 | 33:30.52 | 3:28.53 | 150802 | 166454
9 | 36:59.30 | 5:46.53 | 166455 | 192457
10 | 42:46.08 | 4:16.47 | 192458 | 211704
11 | 47:02.55 | 2:26.27 | 211705 | 222681


Характеристики диапазона извлечения и сообщения об ошибках

Выбранный диапазон

Имя файла D:BitCometZora Young & Little Mike and the Tornadoes - Friday Night(2015)(flac)Zora Young & Little Mike and the Tornadoes - Friday Night.wav

Пиковый уровень 100.0 %
Скорость извлечения 2.8 X
Качество диапазона 99.9 %
CRC теста CEA46E64
CRC копии CEA46E64
Копирование... OK

Ошибок не произошло


AccurateRip: сводка

Трек 1 отсутствует в базе данных
Трек 2 отсутствует в базе данных
Трек 3 отсутствует в базе данных
Трек 4 отсутствует в базе данных
Трек 5 отсутствует в базе данных
Трек 6 отсутствует в базе данных
Трек 7 отсутствует в базе данных
Трек 8 отсутствует в базе данных
Трек 9 отсутствует в базе данных
Трек 10 отсутствует в базе данных
Трек 11 отсутствует в базе данных

Ни одного трека нет в базе AccurateRip

Конец отчёта

==== Контрольная сумма отчёта 4A43711E1A7053530223D20C1DE596670D0AFDB86FF16B26569ADA31778402F6 ====

foobar2000 1.2.6 / Dynamic Range Meter 1.1.1
log date: 2015-11-08 10:48:47

--------------------------------------------------------------------------------
Analyzed: Zora Young & Little Mike and the Tornadoes / Friday Night
--------------------------------------------------------------------------------

DR Peak RMS Duration Track
--------------------------------------------------------------------------------
DR9 0.00 dB -10.68 dB 3:15 01-I've Been a Fool Too Long
DR10 0.00 dB -11.77 dB 4:27 02-A Fools Lament
DR10 0.00 dB -12.49 dB 4:51 03-44 Blues
DR9 0.00 dB -9.91 dB 3:20 04-True Love Is Hard To Find
DR10 0.00 dB -11.82 dB 5:39 05-I Love Chicago
DR10 0.00 dB -11.47 dB 5:07 06-Friday Night
DR9 0.00 dB -12.32 dB 6:51 07-Chains Of Love
DR9 0.00 dB -9.95 dB 3:29 08-JustYour Fool
DR11 0.00 dB -12.54 dB 5:47 09-Country Girl
DR10 0.00 dB -12.37 dB 4:17 10-I'm Good
DR11 -0.06 dB -12.55 dB 2:26 11-Spann's Boogie
--------------------------------------------------------------------------------

Number of tracks: 11
Official DR value: DR10

Samplerate: 44100 Hz
Channels: 2
Bits per sample: 16
Bitrate: 899 kbps
Codec: FLAC
================================================================================

[CUETools log; Date: 08.11.2015 10:48:39; Version: 2.1.5]
[CTDB TOCID: S0WReVT6J3XJOLLTEScT7oOjFVc-] disk not present in database.
[AccurateRip ID: 00146b57-00b38fcc-8c0b990b] disk not present in database.

Track Peak [ CRC32 ] [W/O NULL] [ LOG ]
-- 100,0 [CEA46E64] [3A044DE3] CRC32
01 100,0 [59851558] [3B862294]
02 100,0 [29C7C0E0] [908C07EB]
03 100,0 [DB773168] [42B93454]
04 100,0 [D39A1EA3] [AEDAEEC0]
05 100,0 [71C4C5A8] [7C3BAE61]
06 100,0 [51DD97E8] [2532F6EC]
07 100,0 [E452BAEC] [3D4E461B]
08 100,0 [09991FA2] [D9732BCC]
09 100,0 [ACEAAD06] [0C68F1CB]
10 100,0 [0A4DC110] [47C99E6C]
11 99,3 [83E0405C] [5BEC24F7]



All thanks go to izia1956



Download:
Uploadable: | |

Turbobit: | |
Previous Long John Hunter - Border Town Legend (1996)
Next Anthony Gomes - Long Way Home (1997)