Ninja Immovable Heart (2014)


Ninja Immovable Heart (2014)
BDRip | MKV / [email protected] kb/s | 720x404 | 1h 43mn | 765 MB | English: AAC, 89 kb/s (2 ch)
BDRip 1080p | MKV / [email protected] kb/s | 1920x1080 | 1h 43mn | 7.64 GB | English: DTS, 1509 kb/s (2 ch)
Genre: Action | Drama

Reeve is a member of an elite covert group thought not to exist anymore, he is captured, beaten and brutally tortured, by the very Governments he used to work for. With the help of his old mentor John Carpenter, Reeve must strip away, and rid himself of the emerging demons of his past, so that he may understand the core essence of Ninjutsu, the Ninja's Immovable heart, in order to remember how and why he was captured, and what he is meant to do, before time runs out and his captors discover why he is really here.




General
Unique ID : 233529155330942195444212323738650116029 (0xAFB0144DEAF7E9DE8336E397DEEF7FBD)
Complete name : D:DownloadsNinja.Immovable.Heart.2014.BDRip.x264-RUSTED[rarbg]ninja.immovable.heart.2014.bdrip.x264-rusted.mkv
Format : Matroska
Format version : Version 4 / Version 2
File size : 765 MiB
Duration : 1h 43mn
Overall bit rate : 1 037 Kbps
Encoded date : UTC 2015-12-05 13:36:11
Writing application : mkvmerge v8.3.0 ('Over the Horizon') 64bit
Writing library : libebml v1.3.1 + libmatroska v1.4.2

Video
ID : 1
Format : AVC
Format/Info : Advanced Video Codec
Format profile : [email protected]
Format settings, CABAC : Yes
Format settings, ReFrames : 5 frames
Codec ID : V_MPEG4/ISO/AVC
Duration : 1h 43mn
Width : 720 pixels
Height : 404 pixels
Display aspect ratio : 16:9
Frame rate mode : Constant
Frame rate : 23.976 fps
Color space : YUV
Chroma subsampling : 4:2:0
Bit depth : 8 bits
Scan type : Progressive
Writing library : x264 core 148 r2638 7599210
Encoding settings : cabac=1 / ref=5 / deblock=1:-2:-2 / analyse=0x3:0x133 / me=umh / subme=8 / psy=1 / psy_rd=0.90:0.00 / mixed_ref=1 / me_range=16 / chroma_me=1 / trellis=1 / 8x8dct=1 / cqm=0 / deadzone=21,11 / fast_pskip=0 / chroma_qp_offset=-2 / threads=13 / lookahead_threads=2 / sliced_threads=0 / nr=0 / decimate=1 / interlaced=0 / bluray_compat=0 / constrained_intra=0 / bframes=3 / b_pyramid=2 / b_adapt=2 / b_bias=0 / direct=3 / weightb=1 / open_gop=0 / weightp=2 / keyint=240 / keyint_min=23 / scenecut=40 / intra_refresh=0 / rc_lookahead=50 / rc=crf / mbtree=1 / crf=19.0 / qcomp=0.60 / qpmin=0 / qpmax=69 / qpstep=4 / ip_ratio=1.40 / aq=1:1.00
Language : English
Default : Yes
Forced : No
Color range : Limited
Matrix coefficients : BT.709

Audio
ID : 2
Format : AAC
Format/Info : Advanced Audio Codec
Format profile : LC
Codec ID : A_AAC
Duration : 1h 43mn
Channel(s) : 2 channels
Channel positions : Front: L R
Sampling rate : 48.0 KHz
Compression mode : Lossy
Delay relative to video : 9ms
Language : English
Default : Yes
Forced : No

Menu
00:00:00.000 : en:00:00:00.000
00:06:59.961 : en:00:06:59.961
00:15:41.983 : en:00:15:41.983
00:30:53.018 : en:00:30:53.018
00:47:36.937 : en:00:47:36.937
01:01:31.980 : en:01:01:31.980
01:19:36.897 : en:01:19:36.897
01:31:12.926 : en:01:31:12.926
01:40:13.925 : en:01:40:13.925



General
Unique ID : 240008201019467474205812772166954415142 (0xB48FE5EB77894E7C851DB87430F87426)
Complete name : D:DownloadsNinja.Immovable.Heart.2014.1080p.BluRay.x264-VALUE[rarbg]ninja.immovable.heart.2014.1080p.bluray.x264-value.mkv
Format : Matroska
Format version : Version 4 / Version 2
File size : 7.64 GiB
Duration : 1h 43mn
Overall bit rate : 10.6 Mbps
Encoded date : UTC 2015-12-05 18:11:40
Writing application : mkvmerge v8.3.0 ('Over the Horizon') 64bit
Writing library : libebml v1.3.1 + libmatroska v1.4.2

Video
ID : 1
Format : AVC
Format/Info : Advanced Video Codec
Format profile : [email protected]
Format settings, CABAC : Yes
Format settings, ReFrames : 4 frames
Codec ID : V_MPEG4/ISO/AVC
Duration : 1h 43mn
Bit rate : 9 096 Kbps
Width : 1 920 pixels
Height : 1 080 pixels
Display aspect ratio : 16:9
Frame rate mode : Constant
Frame rate : 23.976 fps
Color space : YUV
Chroma subsampling : 4:2:0
Bit depth : 8 bits
Scan type : Progressive
Bits/(Pixel*Frame) : 0.183
Stream size : 6.40 GiB (84%)
Writing library : x264 core 148 r2638 7599210
Encoding settings : cabac=1 / ref=4 / deblock=1:1:1 / analyse=0x3:0x133 / me=umh / subme=8 / psy=1 / psy_rd=1.00:0.00 / mixed_ref=1 / me_range=16 / chroma_me=1 / trellis=1 / 8x8dct=1 / cqm=0 / deadzone=21,11 / fast_pskip=0 / chroma_qp_offset=-2 / threads=18 / lookahead_threads=3 / sliced_threads=0 / nr=0 / decimate=1 / interlaced=0 / bluray_compat=0 / constrained_intra=0 / bframes=3 / b_pyramid=2 / b_adapt=2 / b_bias=0 / direct=3 / weightb=1 / open_gop=0 / weightp=2 / keyint=240 / keyint_min=23 / scenecut=40 / intra_refresh=0 / rc_lookahead=50 / rc=2pass / mbtree=1 / bitrate=9096 / ratetol=1.0 / qcomp=0.60 / qpmin=0 / qpmax=69 / qpstep=4 / cplxblur=20.0 / qblur=0.5 / ip_ratio=1.40 / aq=1:1.00
Language : English
Default : Yes
Forced : No

Audio
ID : 2
Format : DTS
Format/Info : Digital Theater Systems
Mode : 16
Format settings, Endianness : Big
Codec ID : A_DTS
Duration : 1h 43mn
Bit rate mode : Constant
Bit rate : 1 509 Kbps
Channel(s) : 2 channels
Channel positions : Front: L R
Sampling rate : 48.0 KHz
Bit depth : 24 bits
Compression mode : Lossy
Stream size : 1.09 GiB (14%)
Language : English
Default : Yes
Forced : No

Menu
00:00:00.000 : en:00:00:00.000
00:06:59.961 : en:00:06:59.961
00:15:41.983 : en:00:15:41.983
00:30:53.018 : en:00:30:53.018
00:47:36.937 : en:00:47:36.937
01:01:31.980 : en:01:01:31.980
01:19:36.897 : en:01:19:36.897
01:31:12.926 : en:01:31:12.926
01:40:13.925 : en:01:40:13.925


Screenshots BDRip





Screenshots BDRip 1080p






Previous Velociraptor (2014)
Next Top Spin (2014)