Rider Jack (2015)


Rider Jack (2015)
DVDRip | MKV / [email protected] kb/s | 720x294 | 1h 25mn | 886 MB | German: AC3, 192 kb/s (2 ch) | Subtiltes: English, Italian
Genre: Comedy

Jack, who has all but failed at life, dreams of a fresh beginning abroad. Instead, he unexpectedly has to take care of his hated father Paul, who he has not seen since childhood. Paul suffers from Alzheimer's and wants to make peace with his son while he still can. But Jack has very different plans for Paul. Two worlds collide, and a journey to Ticino, the Italian-speaking part of Switzerland, turns into an odyssey back to a painfully suppressed past.

- 1 win & 1 nomination.



General
Unique ID : 201748701932827468793142769681916737302 (0x97C762FA246E6C8F856B191E6B9BB716)
Complete name : C:Rider.Jack.Swissgerman.2015.DVDRiP.mkv
Format : Matroska
Format version : Version 4 / Version 2
File size : 886 MiB
Duration : 1h 25mn
Overall bit rate : 1 442 Kbps
Encoded date : UTC 2015-12-06 08:28:06
Writing application : mkvmerge v8.3.0 ('Over the Horizon') 64bit
Writing library : libebml v1.3.1 + libmatroska v1.4.2
DURATION : 01:25:13.312000000
NUMBER_OF_FRAMES : 1043
NUMBER_OF_BYTES : 934766
_STATISTICS_WRITING_APP : mkvmerge v8.3.0 ('Over the Horizon') 64bit
_STATISTICS_WRITING_DATE_UT : 2015-12-06 08:28:06
_STATISTICS_TAGS : BPS DURATION NUMBER_OF_FRAMES NUMBER_OF_BYTES

Video
ID : 1
Format : AVC
Format/Info : Advanced Video Codec
Format profile : [email protected]
Format settings, CABAC : Yes
Format settings, ReFrames : 5 frames
Codec ID : V_MPEG4/ISO/AVC
Duration : 1h 25mn
Bit rate : 1 221 Kbps
Width : 700 pixels
Height : 294 pixels
Display aspect ratio : 2.40:1
Frame rate mode : Constant
Frame rate : 25.000 fps
Color space : YUV
Chroma subsampling : 4:2:0
Bit depth : 8 bits
Scan type : Progressive
Bits/(Pixel*Frame) : 0.237
Stream size : 750 MiB (85%)
Writing library : x264 core 148 r2597 e86f3a1
Encoding settings : cabac=1 / ref=5 / deblock=1:0:0 / analyse=0x3:0x113 / me=umh / subme=7 / psy=1 / psy_rd=1.00:0.00 / mixed_ref=1 / me_range=16 / chroma_me=1 / trellis=1 / 8x8dct=1 / cqm=0 / deadzone=21,11 / fast_pskip=0 / chroma_qp_offset=-2 / threads=6 / lookahead_threads=1 / sliced_threads=0 / nr=0 / decimate=1 / interlaced=0 / bluray_compat=0 / constrained_intra=0 / bframes=3 / b_pyramid=2 / b_adapt=1 / b_bias=0 / direct=1 / weightb=1 / open_gop=0 / weightp=2 / keyint=250 / keyint_min=25 / scenecut=40 / intra_refresh=0 / rc_lookahead=40 / rc=crf / mbtree=1 / crf=19.0 / qcomp=0.60 / qpmin=0 / qpmax=69 / qpstep=4 / ip_ratio=1.40 / aq=1:1.00
Default : Yes
Forced : No

Audio
ID : 2
Format : AC-3
Format/Info : Audio Coding 3
Mode extension : CM (complete main)
Format settings, Endianness : Big
Codec ID : A_AC3
Duration : 1h 25mn
Bit rate mode : Constant
Bit rate : 192 Kbps
Channel(s) : 2 channels
Channel positions : Front: L R
Sampling rate : 48.0 KHz
Compression mode : Lossy
Stream size : 118 MiB (13%)
Language : German
Default : Yes
Forced : No

Text #1
ID : 3
Format : VobSub
Muxing mode : zlib
Codec ID : S_VOBSUB
Codec ID/Info : Picture based subtitle format used on DVDs
Language : English
Default : Yes
Forced : No

Text #2
ID : 4
Format : VobSub
Muxing mode : zlib
Codec ID : S_VOBSUB
Codec ID/Info : Picture based subtitle format used on DVDs
Language : Italian
Default : No
Forced : No


Screenshots



Previous A Very Murray Christmas (2015)
Next Pleasure Island (2015)