Yakuza Apocalypse (2015)



Yakuza Apocalypse (2015)
DVDRip | MKV/AVC @ 765 Kbps | 720x304 | Japanese AAC @ 119 Kbps | 01:55:08 | 730 MiB | Sub: None
Genre: Action | Comedy | Horror

In the ruthless underground world of the yakuza, no one is more legendary than boss Kamiura. Rumored to be invincible, the truth is he is a vampire-a bloodsucking yakuza vampire boss! Among Kamiura’s gang is Kageyama, his most loyal underling.






General
Format : Matroska
Format version : Version 2
File size : 730 MiB
Duration : 1h 55mn
Overall bit rate : 886 Kbps
Encoded date : UTC 2015-12-05 06:37:52
Writing application : mkvmerge v8.5.2 ('Crosses') 32bit
Writing library : libebml v1.3.3 + libmatroska v1.4.4

Video
ID : 1
Format : AVC
Format/Info : Advanced Video Codec
Format profile : [email protected]
Format settings, CABAC : Yes
Format settings, ReFrames : 5 frames
Codec ID : V_MPEG4/ISO/AVC
Duration : 1h 55mn
Bit rate : 765 Kbps
Width : 720 pixels
Height : 304 pixels
Display aspect ratio : 2.35:1
Frame rate mode : Constant
Frame rate : 23.976 (24000/1001) fps
Color space : YUV
Chroma subsampling : 4:2:0
Bit depth : 8 bits
Scan type : Progressive
Bits/(Pixel*Frame) : 0.146
Stream size : 630 MiB (86%)
Default : Yes
Forced : No

Audio
ID : 2
Format : AAC
Format/Info : Advanced Audio Codec
Format profile : LC
Codec ID : A_AAC
Duration : 1h 55mn
Bit rate : 119 Kbps
Channel(s) : 2 channels
Channel positions : Front: L R
Sampling rate : 48.0 KHz
Frame rate : 46.875 fps (1024 spf)
Compression mode : Lossy
Delay relative to video : 9ms
Stream size : 98.0 MiB (13%)
Title : Japanese | English
Language : Japanese
Default : Yes
Forced : No

Previous Clip (2012)
Next No Mans Woman (1955)