No Mans Woman (1955)



No Mans Woman (1955)
BluRay 1080p | MKV/AVC @ 9578 Kbps | 1808x1080 | English DTS @ 1509 Kbps | 01:10:28 | 5.46 GiB | Sub: None
Genre: Crime | Mystery

Carolyn Ellenson double-crosses five people who cross her path and is murdered by one of them. After marrying Harlow Grant for his money, she leaves him but carries on her infidelities so cleverly he can not divorce her. When Grant falls in love with Louise Nelson, art-studio employee, Carolyn demands a prohibitive cash settlement and large alimony payments.






General
Format : Matroska
Format version : Version 4 / Version 2
File size : 5.46 GiB
Duration : 1h 10mn
Overall bit rate : 11.1 Mbps
Encoded date : UTC 2015-12-04 16:42:01
Writing application : mkvmerge v8.6.1 ('Flying') 64bit
Writing library : libebml v1.3.3 + libmatroska v1.4.4

Video
ID : 1
Format : AVC
Format/Info : Advanced Video Codec
Format profile : [email protected]
Format settings, CABAC : Yes
Format settings, ReFrames : 4 frames
Codec ID : V_MPEG4/ISO/AVC
Duration : 1h 10mn
Bit rate : 9 578 Kbps
Width : 1 808 pixels
Height : 1 080 pixels
Display aspect ratio : 5:3
Frame rate mode : Constant
Frame rate : 23.976 (24000/1001) fps
Color space : YUV
Chroma subsampling : 4:2:0
Bit depth : 8 bits
Scan type : Progressive
Bits/(Pixel*Frame) : 0.205
Stream size : 4.71 GiB (86%)

Default : Yes
Forced : No

Audio
ID : 2
Format : DTS
Format/Info : Digital Theater Systems
Mode : 16
Format settings, Endianness : Big
Codec ID : A_DTS
Duration : 1h 10mn
Bit rate mode : Constant
Bit rate : 1 509 Kbps
Channel(s) : 2 channels
Channel positions : Front: L R
Sampling rate : 48.0 KHz
Frame rate : 93.750 fps (512 spf)
Bit depth : 24 bits
Compression mode : Lossy
Stream size : 761 MiB (14%)
Language : English
Default : Yes
Forced : No



Previous Yakuza Apocalypse (2015)
Next Christmas Eve (2015)