Earth From Above: Stunning Water (2004)


Earth From Above: Stunning Water (2004)
HDTV 720p | MKV / AVC, 6942 Kbps | 1280x720 | 1h 32mn | 4.74 GiB
Russian: AC3, 192 Kbps (2 ch) | English: AC3, 192 Kbps (2 ch)
Genre: Documentary

Yann Arthus-Bertrand has flown over hundreds of countries to create an extraordinary aerial portrait of our planet as never seen before. This DVD from the Panoramica Motion Gallery is 'Ambient' in concept, there is no storytelling, no narratives, just a constant stream of compelling beauty.


General
Unique ID : 236908155621079032410849004658849599435 (0xB23AD9E18F4C291C80CC81D35089CFCB)
Complete name : Earth.From.Above-Stunning.Water.2004.720p.BluRay.Rus.Eng.HDCLUB.mkv
Format : Matroska
Format version : Version 4 / Version 2
File size : 4.74 GiB
Duration : 1h 32mn
Overall bit rate : 7 328 Kbps
Movie name : Create by DeTorquemada for HDCLUB
Encoded date : UTC 2015-12-14 06:38:41
Writing application : mkvmerge v8.6.1 ('Flying') 32bit
Writing library : libebml v1.3.3 + libmatroska v1.4.4

Video
ID : 1
Format : AVC
Format/Info : Advanced Video Codec
Format profile : [email protected]
Format settings, CABAC : Yes
Format settings, ReFrames : 7 frames
Codec ID : V_MPEG4/ISO/AVC
Duration : 1h 32mn
Bit rate : 6 942 Kbps
Width : 1 280 pixels
Height : 720 pixels
Display aspect ratio : 16:9
Frame rate mode : Constant
Frame rate : 23.976 (24000/1001) fps
Color space : YUV
Chroma subsampling : 4:2:0
Bit depth : 8 bits
Scan type : Progressive
Bits/(Pixel*Frame) : 0.314
Stream size : 4.49 GiB (95%)
Title : Земля, увиденная с неба: Восхитительная вода / Earth From Above: Stunning Water (2004) - realise for HDCLUB
Writing library : x264 core 146 r2538 121396c
Encoding settings : cabac=1 / ref=7 / deblock=1:-3:-3 / analyse=0x3:0x113 / me=umh / subme=10 / psy=1 / psy_rd=1.00:0.00 / mixed_ref=1 / me_range=48 / chroma_me=1 / trellis=2 / 8x8dct=1 / cqm=0 / deadzone=21,11 / fast_pskip=1 / chroma_qp_offset=-2 / threads=6 / lookahead_threads=1 / sliced_threads=0 / nr=0 / decimate=1 / interlaced=0 / bluray_compat=0 / constrained_intra=0 / bframes=3 / b_pyramid=2 / b_adapt=2 / b_bias=0 / direct=1 / weightb=1 / open_gop=0 / weightp=2 / keyint=240 / keyint_min=23 / scenecut=40 / intra_refresh=0 / rc_lookahead=65 / rc=crf / mbtree=0 / crf=18.0 / qcomp=0.60 / qpmin=0 / qpmax=69 / qpstep=4 / vbv_maxrate=50000 / vbv_bufsize=62500 / crf_max=0.0 / nal_hrd=none / filler=0 / ip_ratio=1.40 / pb_ratio=1.30 / aq=1:0.80
Language : French
Default : Yes
Forced : No
Color range : Limited
Matrix coefficients : BT.709

Audio #1
ID : 2
Format : AC-3
Format/Info : Audio Coding 3
Mode extension : CM (complete main)
Format settings, Endianness : Big
Codec ID : A_AC3
Duration : 1h 32mn
Bit rate mode : Constant
Bit rate : 192 Kbps
Channel(s) : 2 channels
Channel positions : Front: L R
Sampling rate : 48.0 KHz
Frame rate : 31.250 fps (1536 spf)
Compression mode : Lossy
Stream size : 127 MiB (3%)
Title : 48 kHz/16-bit, AC3, 2.0 (L, R) ch, ~192.00 kbps avg - Двухголосый закадровый, студия Омикрон
Language : Russian
Default : Yes
Forced : No

Audio #2
ID : 3
Format : AC-3
Format/Info : Audio Coding 3
Mode extension : CM (complete main)
Format settings, Endianness : Big
Codec ID : A_AC3
Duration : 1h 32mn
Bit rate mode : Constant
Bit rate : 192 Kbps
Channel(s) : 2 channels
Channel positions : Front: L R
Sampling rate : 48.0 KHz
Frame rate : 31.250 fps (1536 spf)
Compression mode : Lossy
Stream size : 127 MiB (3%)
Title : 48 kHz/16-bit, AC3, 2.0 (L, R) ch, ~192.00 kbps avg
Language : English
Default : No
Forced : No

Screenshots :




Downloads :
Previous India (2014) in 4K
Next A Film About Coffee (2014) in 4K