Ni le ciel ni la terre (2015)


Ni le ciel ni la terre (2015)
DVDRip | French | AVI | 720x392, 24 fps | XViD, 799 Kbps
MP3, 128 Kbps | 1h 44mn | 694 Mb
Genre: Drama, Fantasy, Thriller

Afghanistan 2014. A l’approche du retrait des troupes, le capitaine Antarès Bonassieu et sa section sont affectés à une mission de contrôle et de surveillance dans une vallée reculée du Wakhan, frontalière du Pakistan. Malgré la détermination d’Antarès et de ses hommes, le contrôle de ce secteur supposé calme va progressivement leur échapper. Une nuit, des soldats se mettent à disparaître mystérieusement dans la vallée.
Video
ID : 0
Format : MPEG-4 Visual
Format profile : Advanced [email protected]
Format settings, BVOP : 1
Format settings, QPel : No
Format settings, GMC : No warppoints
Format settings, Matrix : Default (H.263)
Codec ID : XVID
Codec ID/Hint : XviD
Duration : 1h 44mn
Bit rate : 799 Kbps
Width : 720 pixels
Height : 392 pixels
Display aspect ratio : 1.85:1
Frame rate : 24.000 fps
Color space : YUV
Chroma subsampling : 4:2:0
Bit depth : 8 bits
Scan type : Progressive
Compression mode : Lossy
Bits/(Pixel*Frame) : 0.118
Stream size : 595 MiB (86%)
Writing library : XviD 67

Audio
ID : 1
Format : MPEG Audio
Format version : Version 1
Format profile : Layer 3
Mode : Joint stereo
Mode extension : MS Stereo
Codec ID : 55
Codec ID/Hint : MP3
Duration : 1h 44mn
Bit rate mode : Constant
Bit rate : 128 Kbps
Channel(s) : 2 channels
Sampling rate : 48.0 KHz
Compression mode : Lossy
Stream size : 95.3 MiB (14%)
Alignment : Aligned on interleaves
Interleave, duration : 167 ms (4.00 video frames)
Interleave, preload duratio : 216 ms
Title : M
Writing library : LAME3.99r
Encoding settings : -m j -V 4 -q 2 -lowpass 17 -b 128


|




DOWNLOAD
http://www.nitroflare.com/view/EE39324E6FC85E3/Ni.Le.Ciel.Ni.La.Terre.2015.FRENCH.DVDRip.XviD.avi
Previous Francis (1950)