Mad Max: Fury Road (2015) [Black and Chrome Edition]


Mad Max: Fury Road (2015) [Black and Chrome Edition]
BRRip | AVI | 720x300 | [email protected] kb/s | English [email protected] kb/s | 6 channels | 2 h 0 min | 1.72 GB
BDRip 720p | MKV | 1280x536 | [email protected] kb/s | English [email protected] kb/s | 6 channels | 2 h 0 min | 3.53 GB
BDRip 1080p | MKV | 1920x800 | [email protected] kb/s | English [email protected] kb/s | 6 channels | 2 h 0 min | 8.49 GB
Genre: Action, Adventure, Sci-Fi

A woman rebels against a tyrannical ruler in postapocalyptic Australia in search for her home-land with the help of a group of female prisoners, a psychotic worshipper, and a drifter named Max.

- Top Rated Movies #198 | Won 6 Oscars. Another 210 wins & 193 nominations


General
Complete name : J:TorrentsMad.Max.Fury.Road.2015.Black.and.Chrome.Edition.BRRip.XviD.AC3-RARBGMad.Max.Fury.Road.2015.Black.and.Chrome.Edition.BRRip.XviD.AC3-RARBG.avi
Format : AVI
Format/Info : Audio Video Interleave
File size : 1.73 GiB
Duration : 2 h 0 min
Overall bit rate : 2 054 kb/s
Writing application : Lavf56.40.101
Writing library : VirtualDub build 35491/release

Video
ID : 0
Format : MPEG-4 Visual
Format profile : [email protected]
Format settings, BVOP : No
Format settings, QPel : No
Format settings, GMC : No warppoints
Format settings, Matrix : Default (H.263)
Codec ID : XVID
Codec ID/Hint : XviD
Duration : 2 h 0 min
Bit rate : 1 596 kb/s
Width : 720 pixels
Height : 300 pixels
Display aspect ratio : 2.40:1
Frame rate : 23.976 (24000/1001) FPS
Color space : YUV
Chroma subsampling : 4:2:0
Bit depth : 8 bits
Scan type : Progressive
Compression mode : Lossy
Bits/(Pixel*Frame) : 0.308
Stream size : 1.34 GiB (78%)
Writing library : Lavc56.60.100

Audio
ID : 1
Format : AC-3
Format/Info : Audio Coding 3
Mode extension : CM (complete main)
Format settings, Endianness : Big
Codec ID : 2000
Duration : 2 h 0 min
Bit rate mode : Constant
Bit rate : 448 kb/s
Channel(s) : 6 channels
Channel positions : Front: L C R, Side: L R, LFE
Sampling rate : 48.0 kHz
Frame rate : 31.250 FPS (1536 spf)
Bit depth : 16 bits
Compression mode : Lossy
Stream size : 386 MiB (22%)
Alignment : Aligned on interleaves
Interleave, duration : 42 ms (1.00 video frame)
Interleave, preload duration : 512 ms

General
Unique ID : 214385702888017901934344703583809978490 (0xA1492F3A58D20AD99A1187C47AC4407A)
Complete name : J:TorrentsMad.Max.Fury.Road.Black.and.Chrome.Edition.2015.720p.BluRay.x264.mkv
Format : Matroska
Format version : Version 4 / Version 2
File size : 3.54 GiB
Duration : 2 h 0 min
Overall bit rate : 4 207 kb/s
Encoded date : UTC 2016-12-08 11:41:14
Writing application : mkvmerge v9.6.0 ('Slave To Your Mind') 64bit
Writing library : libebml v1.3.4 + libmatroska v1.4.5

Video
ID : 1
Format : AVC
Format/Info : Advanced Video Codec
Format profile : [email protected]
Format settings, CABAC : Yes
Format settings, ReFrames : 5 frames
Codec ID : V_MPEG4/ISO/AVC
Duration : 2 h 0 min
Bit rate : 3 565 kb/s
Width : 1 280 pixels
Height : 536 pixels
Display aspect ratio : 2.40:1
Frame rate mode : Constant
Frame rate : 23.976 (24000/1001) FPS
Color space : YUV
Chroma subsampling : 4:2:0
Bit depth : 8 bits
Scan type : Progressive
Bits/(Pixel*Frame) : 0.217
Stream size : 3.00 GiB (85%)
Writing library : x264 core 148 r2705 3f5ed56
Encoding settings : cabac=1 / ref=5 / deblock=1:-1:-1 / analyse=0x3:0x113 / me=umh / subme=8 / psy=1 / psy_rd=1.00:0.00 / mixed_ref=1 / me_range=16 / chroma_me=1 / trellis=2 / 8x8dct=1 / cqm=0 / deadzone=21,11 / fast_pskip=0 / chroma_qp_offset=-2 / threads=17 / lookahead_threads=2 / sliced_threads=0 / nr=0 / decimate=1 / interlaced=0 / bluray_compat=0 / constrained_intra=0 / bframes=5 / b_pyramid=2 / b_adapt=1 / b_bias=0 / direct=3 / weightb=1 / open_gop=0 / weightp=1 / keyint=250 / keyint_min=23 / scenecut=40 / intra_refresh=0 / rc_lookahead=40 / rc=crf / mbtree=1 / crf=20.0 / qcomp=0.60 / qpmin=16 / qpmax=69 / qpstep=4 / ip_ratio=1.40 / aq=1:1.00
Language : English
Default : Yes
Forced : No

Audio
ID : 2
Format : AC-3
Format/Info : Audio Coding 3
Mode extension : CM (complete main)
Format settings, Endianness : Big
Codec ID : A_AC3
Duration : 2 h 0 min
Bit rate mode : Constant
Bit rate : 640 kb/s
Channel(s) : 6 channels
Channel positions : Front: L C R, Side: L R, LFE
Sampling rate : 48.0 kHz
Frame rate : 31.250 FPS (1536 spf)
Bit depth : 16 bits
Compression mode : Lossy
Stream size : 551 MiB (15%)
Language : English
Default : Yes
Forced : No

Menu
00:00:00.000 : en:00:00:00.000
00:10:42.475 : en:00:10:42.475
00:19:06.437 : en:00:19:06.437
00:30:12.310 : en:00:30:12.310
00:42:55.615 : en:00:42:55.615
00:49:33.345 : en:00:49:33.345
00:59:55.175 : en:00:59:55.175
01:13:02.545 : en:01:13:02.545
01:22:08.924 : en:01:22:08.924
01:30:02.731 : en:01:30:02.731
01:40:39.867 : en:01:40:39.867
01:49:12.546 : en:01:49:12.546
01:53:06.279 : en:01:53:06.279

General
Unique ID : 201066477616037906293940982622914353437 (0x9743FEB8AB29DCEA8DB1FF1DFF54191D)
Complete name : J:TorrentsMad.Max.Fury.Road.2015.Black.and.Chrome.Edition.1080p.BluRay.x264.DD5.1-FGTMad.Max.Fury.Road.2015.Black.and.Chrome.Edition.1080p.BluRay.x264.DD5.1-FGT.mkv
Format : Matroska
Format version : Version 4 / Version 2
File size : 8.49 GiB
Duration : 2 h 0 min
Overall bit rate : 10.1 Mb/s
Movie name : Mad.Max.Fury.Road.2015.Black.and.Chrome.Edition.1080p.BluRay.x264.DD5.1-FGT
Encoded date : UTC 2016-12-08 14:10:40
Writing application : mkvmerge v9.4.0 ('Knurl') 64bit
Writing library : libebml v1.3.4 + libmatroska v1.4.5
Cover : Yes
Attachments : cover_land.jpg / small_cover.jpg / small_cover_land.jpg / cover.jpg

Video
ID : 1
Format : AVC
Format/Info : Advanced Video Codec
Format profile : [email protected]
Format settings, CABAC : Yes
Format settings, ReFrames : 5 frames
Codec ID : V_MPEG4/ISO/AVC
Duration : 2 h 0 min
Bit rate : 9 258 kb/s
Width : 1 920 pixels
Height : 800 pixels
Display aspect ratio : 2.40:1
Frame rate mode : Constant
Frame rate : 23.976 (24000/1001) FPS
Color space : YUV
Chroma subsampling : 4:2:0
Bit depth : 8 bits
Scan type : Progressive
Bits/(Pixel*Frame) : 0.251
Stream size : 7.78 GiB (92%)
Writing library : x264 core 148 r2705 3f5ed56
Encoding settings : cabac=1 / ref=5 / deblock=1:-1:-1 / analyse=0x3:0x113 / me=umh / subme=8 / psy=1 / psy_rd=1.00:0.00 / mixed_ref=1 / me_range=16 / chroma_me=1 / trellis=2 / 8x8dct=1 / cqm=0 / deadzone=21,11 / fast_pskip=0 / chroma_qp_offset=-2 / threads=24 / lookahead_threads=4 / sliced_threads=0 / nr=0 / decimate=1 / interlaced=0 / bluray_compat=0 / constrained_intra=0 / bframes=5 / b_pyramid=2 / b_adapt=1 / b_bias=0 / direct=3 / weightb=1 / open_gop=0 / weightp=1 / keyint=250 / keyint_min=23 / scenecut=40 / intra_refresh=0 / rc_lookahead=40 / rc=crf / mbtree=1 / crf=20.0 / qcomp=0.60 / qpmin=16 / qpmax=69 / qpstep=4 / ip_ratio=1.40 / aq=1:1.00
Language : English
Default : Yes
Forced : No

Audio
ID : 2
Format : AC-3
Format/Info : Audio Coding 3
Mode extension : CM (complete main)
Format settings, Endianness : Big
Codec ID : A_AC3
Duration : 2 h 0 min
Bit rate mode : Constant
Bit rate : 640 kb/s
Channel(s) : 6 channels
Channel positions : Front: L C R, Side: L R, LFE
Sampling rate : 48.0 kHz
Frame rate : 31.250 FPS (1536 spf)
Bit depth : 16 bits
Compression mode : Lossy
Stream size : 551 MiB (6%)
Language : English
Default : Yes
Forced : No

Menu
00:00:00.000 : en:00:00:00.000
00:10:42.475 : en:00:10:42.475
00:19:06.437 : en:00:19:06.437
00:30:12.310 : en:00:30:12.310
00:42:55.615 : en:00:42:55.615
00:49:33.345 : en:00:49:33.345
00:59:55.175 : en:00:59:55.175
01:13:02.545 : en:01:13:02.545
01:22:08.924 : en:01:22:08.924
01:30:02.731 : en:01:30:02.731
01:40:39.867 : en:01:40:39.867
01:49:12.546 : en:01:49:12.546
01:53:06.279 : en:01:53:06.279


BRRip Screenshots






BDRip 720p Screenshots






BDRip 1080p Screenshots








BRRip


Single Link

http://www.nitroflare.com/view/1F3454EBC5A05A2/Mad.Max.Fury.Road.2015.Black.and.Chrome.Edition.BRRip.XviD.AC3-RARBG.avi

500 MB Links

http://www.nitroflare.com/view/8EB84C71C52F46A/Mad.Max.Fury.Road.2015.Black.and.Chrome.Edition.BRRip.XviD.AC3-RARBG.part1.rar
http://www.nitroflare.com/view/BE5AC4E4915F9D6/Mad.Max.Fury.Road.2015.Black.and.Chrome.Edition.BRRip.XviD.AC3-RARBG.part2.rar
http://www.nitroflare.com/view/B3D2D5B672FAACE/Mad.Max.Fury.Road.2015.Black.and.Chrome.Edition.BRRip.XviD.AC3-RARBG.part3.rar
http://www.nitroflare.com/view/2398D63317A560D/Mad.Max.Fury.Road.2015.Black.and.Chrome.Edition.BRRip.XviD.AC3-RARBG.part4.rar

BDRip 720p


Single Link

http://www.nitroflare.com/view/CD172A6112A2747/Mad.Max.Fury.Road.Black.and.Chrome.Edition.2015.720p.BluRay.x264-COiNCiDENCE.mkv

900 MB Links

http://www.nitroflare.com/view/45A33B6CB1BB877/Mad.Max.Fury.Road.Black.and.Chrome.Edition.2015.720p.BluRay.x264.part1.rar
http://www.nitroflare.com/view/9C993601BC0AF1E/Mad.Max.Fury.Road.Black.and.Chrome.Edition.2015.720p.BluRay.x264.part2.rar
http://www.nitroflare.com/view/7B2C79BCD807003/Mad.Max.Fury.Road.Black.and.Chrome.Edition.2015.720p.BluRay.x264.part3.rar
http://www.nitroflare.com/view/B92D31F1178485C/Mad.Max.Fury.Road.Black.and.Chrome.Edition.2015.720p.BluRay.x264.part4.rar
http://www.nitroflare.com/view/B8B8BDA809C374A/Mad.Max.Fury.Road.Black.and.Chrome.Edition.2015.720p.BluRay.x264.part5.rar

BDRip 1080p


Single Link

http://www.nitroflare.com/view/532A726EE146696/Mad.Max.Fury.Road.2015.Black.and.Chrome.Edition.1080p.BluRay.x264.DD5.1-FGT.mkv

900 MB Links

http://www.nitroflare.com/view/AEE8738E9A20BDC/Mad.Max.Fury.Road.2015.Black.and.Chrome.Edition.1080p.BluRay.x264.DD5.1-FGT.part01.rar
http://www.nitroflare.com/view/C4B9BD4CC8C4EBF/Mad.Max.Fury.Road.2015.Black.and.Chrome.Edition.1080p.BluRay.x264.DD5.1-FGT.part02.rar
http://www.nitroflare.com/view/ECF00B90398B6A8/Mad.Max.Fury.Road.2015.Black.and.Chrome.Edition.1080p.BluRay.x264.DD5.1-FGT.part03.rar
http://www.nitroflare.com/view/9995C23B41017BB/Mad.Max.Fury.Road.2015.Black.and.Chrome.Edition.1080p.BluRay.x264.DD5.1-FGT.part04.rar
http://www.nitroflare.com/view/A435091C7F84E9A/Mad.Max.Fury.Road.2015.Black.and.Chrome.Edition.1080p.BluRay.x264.DD5.1-FGT.part05.rar
http://www.nitroflare.com/view/845557F328C6045/Mad.Max.Fury.Road.2015.Black.and.Chrome.Edition.1080p.BluRay.x264.DD5.1-FGT.part06.rar
http://www.nitroflare.com/view/7DA40A81D9CC5CC/Mad.Max.Fury.Road.2015.Black.and.Chrome.Edition.1080p.BluRay.x264.DD5.1-FGT.part07.rar
http://www.nitroflare.com/view/97760908E27C4F4/Mad.Max.Fury.Road.2015.Black.and.Chrome.Edition.1080p.BluRay.x264.DD5.1-FGT.part08.rar
http://www.nitroflare.com/view/2B61A60CE591FF6/Mad.Max.Fury.Road.2015.Black.and.Chrome.Edition.1080p.BluRay.x264.DD5.1-FGT.part09.rar
http://www.nitroflare.com/view/AB4542AFE4CD62C/Mad.Max.Fury.Road.2015.Black.and.Chrome.Edition.1080p.BluRay.x264.DD5.1-FGT.part10.rar


Previous Billy Il Koala / Blinky Bill the Movie (2015)
Next Mutant War (1988)