Captain Fantastic (2016)


Captain Fantastic (2016)
BDRip MD | AVI / [email protected] kb/s | 720x304 | 1h 59mn | 1.79 GB | Italian: MP3, 128 kb/s (2 ch)
Genre: Comedy | Drama | Romance

Ben, libero pensatore e padre di sei figli, cresce i suoi ragazzi tra i boschi dello stato di Washington. Una mattina, un'emergenza familiare li costringe a lasciare in auto il piccolo paradiso in cui vivono per imbarcarsi in un viaggio attraverso il paese, durante il quale Ben realizzerà che le sue poco convenzionali idee sul modo di crescere i figli mal si adattano al mondo reale.

- 10 wins & 11 nominations.



General
Complete name : D:Captain.Fantastic.2016.iTALiAN.MD.BDRip.XviD-FLASH.avi
Format : AVI
Format/Info : Audio Video Interleave
File size : 1.79 GiB
Duration : 1 h 59 min
Overall bit rate : 2 142 kb/s
Writing library : VirtualDub build 0/release

Video
ID : 0
Format : MPEG-4 Visual
Format profile : Advanced [email protected]
Format settings, BVOP : 2
Format settings, QPel : No
Format settings, GMC : No warppoints
Format settings, Matrix : Default (H.263)
Codec ID : XVID
Codec ID/Hint : XviD
Duration : 1 h 59 min
Bit rate : 2 001 kb/s
Width : 720 pixels
Height : 304 pixels
Display aspect ratio : 2.35:1
Frame rate : 23.976 (24000/1001) FPS
Color space : YUV
Chroma subsampling : 4:2:0
Bit depth : 8 bits
Scan type : Progressive
Compression mode : Lossy
Bits/(Pixel*Frame) : 0.381
Stream size : 1.67 GiB (93%)
Writing library : XviD 67

Audio
ID : 1
Format : MPEG Audio
Format version : Version 1
Format profile : Layer 3
Mode : Joint stereo
Mode extension : MS Stereo
Codec ID : 55
Codec ID/Hint : MP3
Duration : 1 h 59 min
Bit rate mode : Constant
Bit rate : 128 kb/s
Channel(s) : 2 channels
Sampling rate : 48.0 kHz
Compression mode : Lossy
Stream size : 109 MiB (6%)
Alignment : Aligned on interleaves
Interleave, duration : 24 ms (0.58 video frame)
Interleave, preload duratio : 480 ms




Screenshots





Previous BBC - Brainwashing Stacey: Series 1 (2016)
Next Close To The Enemy S01E05 (2016)