African Bambi (2007)


African Bambi (2007)
1080p BluRay | 1920 x 1080 | .MP4/AVC @ 2500 Kbps | 1h 20mn | English AAC 224 Kbps, 6 channels | 1.53 GB
720p BluRay | 1280 x 720 | .MP4/AVC @ 1500 Kbps | 1h 20mn | English AAC 224 Kbps, 6 channels | 995 MB
BRRip | 720 x 400 | .AVI/XviD @ 1599 Kbps | 1h 20mn | English MP3 192 Kbps, 2 channels | 1.01 GB
Genre: Documentary, Family

A Giraffe mother tells the story of three young gazelle fawns who have to experience great adventures on the plains of Africa.
Director: Gustavo Goulart (as Alan Miller)
Writer: Gustavo Goulart (as Alan Miller)
Stars: Traudel Haas, Loes Luca

More info:

Related Documentaries:
























General
Complete name : African.Bambi.2007.1080p.mp4
Format : MPEG-4
Format profile : Base Media
Codec ID : isom
File size : 1.53 GiB
Duration : 1h 20mn
Overall bit rate : 2 732 Kbps
Movie name : African.Bambi.2007.1080p.BluRay.H264.AAC-RARBG
Encoded date : UTC 2016-12-09 10:17:52
Tagged date : UTC 2016-12-09 10:17:52
Writing application : Lavf56.40.101
Comment : African.Bambi.2007.1080p.BluRay.H264.AAC-RARBG

Video
ID : 1
Format : AVC
Format/Info : Advanced Video Codec
Format profile : [email protected]
Format settings, CABAC : Yes
Format settings, ReFrames : 4 frames
Codec ID : avc1
Codec ID/Info : Advanced Video Coding
Duration : 1h 20mn
Bit rate : 2 500 Kbps
Width : 1 920 pixels
Height : 1 080 pixels
Display aspect ratio : 16:9
Frame rate mode : Constant
Frame rate : 23.976 fps
Color space : YUV
Chroma subsampling : 4:2:0
Bit depth : 8 bits
Scan type : Progressive
Bits/(Pixel*Frame) : 0.050
Stream size : 1.40 GiB (92%)
Writing library : x264 core 148 r2597M e86f3a1
Encoding settings : cabac=1 / ref=4 / deblock=1:-1:-1 / analyse=0x3:0x113 / me=umh / subme=9 / psy=1 / psy_rd=1.00:0.15 / mixed_ref=1 / me_range=24 / chroma_me=1 / trellis=2 / 8x8dct=1 / cqm=0 / deadzone=21,11 / fast_pskip=1 / chroma_qp_offset=-3 / threads=32 / lookahead_threads=4 / sliced_threads=0 / nr=0 / decimate=1 / interlaced=0 / bluray_compat=0 / constrained_intra=0 / bframes=3 / b_pyramid=2 / b_adapt=2 / b_bias=0 / direct=3 / weightb=1 / open_gop=0 / weightp=2 / keyint=250 / keyint_min=25 / scenecut=40 / intra_refresh=0 / rc_lookahead=50 / rc=2pass / mbtree=1 / bitrate=2500 / ratetol=1.0 / qcomp=0.60 / qpmin=0 / qpmax=69 / qpstep=4 / cplxblur=20.0 / qblur=0.5 / vbv_maxrate=31250 / vbv_bufsize=31250 / nal_hrd=none / filler=0 / ip_ratio=1.40 / aq=3:1.00
Encoded date : UTC 2016-12-09 10:17:52
Tagged date : UTC 2016-12-09 10:17:52

Audio
ID : 2
Format : AAC
Format/Info : Advanced Audio Codec
Format profile : LC
Codec ID : 40
Duration : 1h 20mn
Bit rate mode : Constant
Bit rate : 224 Kbps
Channel(s) : 6 channels
Channel positions : Front: L C R, Side: L R, LFE
Sampling rate : 48.0 KHz
Compression mode : Lossy
Stream size : 129 MiB (8%)
Language : English
Encoded date : UTC 2016-12-09 10:17:52
Tagged date : UTC 2016-12-09 10:17:52

General
Complete name : African.Bambi.2007.720p.mp4
Format : MPEG-4
Format profile : Base Media
Codec ID : isom
File size : 995 MiB
Duration : 1h 20mn
Overall bit rate : 1 732 Kbps
Movie name : African.Bambi.2007.720p.BluRay.H264.AAC-RARBG
Encoded date : UTC 2016-12-09 10:03:45
Tagged date : UTC 2016-12-09 10:03:45
Writing application : Lavf56.40.101
Comment : African.Bambi.2007.720p.BluRay.H264.AAC-RARBG

Video
ID : 1
Format : AVC
Format/Info : Advanced Video Codec
Format profile : [email protected]
Format settings, CABAC : Yes
Format settings, ReFrames : 4 frames
Codec ID : avc1
Codec ID/Info : Advanced Video Coding
Duration : 1h 20mn
Bit rate : 1 500 Kbps
Width : 1 280 pixels
Height : 720 pixels
Display aspect ratio : 16:9
Frame rate mode : Constant
Frame rate : 23.976 fps
Color space : YUV
Chroma subsampling : 4:2:0
Bit depth : 8 bits
Scan type : Progressive
Bits/(Pixel*Frame) : 0.068
Stream size : 862 MiB (87%)
Writing library : x264 core 148 r2597M e86f3a1
Encoding settings : cabac=1 / ref=4 / deblock=1:-1:-1 / analyse=0x3:0x113 / me=umh / subme=9 / psy=1 / psy_rd=1.00:0.15 / mixed_ref=1 / me_range=24 / chroma_me=1 / trellis=2 / 8x8dct=1 / cqm=0 / deadzone=21,11 / fast_pskip=1 / chroma_qp_offset=-3 / threads=32 / lookahead_threads=4 / sliced_threads=0 / nr=0 / decimate=1 / interlaced=0 / bluray_compat=0 / constrained_intra=0 / bframes=3 / b_pyramid=2 / b_adapt=2 / b_bias=0 / direct=3 / weightb=1 / open_gop=0 / weightp=2 / keyint=250 / keyint_min=25 / scenecut=40 / intra_refresh=0 / rc_lookahead=50 / rc=2pass / mbtree=1 / bitrate=1500 / ratetol=1.0 / qcomp=0.60 / qpmin=0 / qpmax=69 / qpstep=4 / cplxblur=20.0 / qblur=0.5 / vbv_maxrate=31250 / vbv_bufsize=31250 / nal_hrd=none / filler=0 / ip_ratio=1.40 / aq=3:1.00
Encoded date : UTC 2016-12-09 10:03:45
Tagged date : UTC 2016-12-09 10:03:45

Audio
ID : 2
Format : AAC
Format/Info : Advanced Audio Codec
Format profile : LC
Codec ID : 40
Duration : 1h 20mn
Bit rate mode : Constant
Bit rate : 224 Kbps
Channel(s) : 6 channels
Channel positions : Front: L C R, Side: L R, LFE
Sampling rate : 48.0 KHz
Compression mode : Lossy
Stream size : 129 MiB (13%)
Language : English
Encoded date : UTC 2016-12-09 10:03:45
Tagged date : UTC 2016-12-09 10:03:45

General
Complete name : African.Bambi.2007.BRRip.avi
Format : AVI
Format/Info : Audio Video Interleave
Format profile : OpenDML
File size : 1.01 GiB
Duration : 1h 20mn
Overall bit rate : 1 808 Kbps
Movie name : RARBG.COM - African.Bambi.2007.BRRip.XviD.MP3-RARBG
Writing application : Lavf56.40.101
Comment : RARBG.COM - African.Bambi.2007.BRRip.XviD.MP3-RARBG

Video
ID : 0
Format : MPEG-4 Visual
Format profile : [email protected]
Format settings, BVOP : No
Format settings, QPel : No
Format settings, GMC : No warppoints
Format settings, Matrix : Default (H.263)
Codec ID : XVID
Codec ID/Hint : XviD
Duration : 1h 20mn
Bit rate : 1 599 Kbps
Width : 720 pixels
Height : 400 pixels
Display aspect ratio : 16:9
Frame rate : 23.976 fps
Color space : YUV
Chroma subsampling : 4:2:0
Bit depth : 8 bits
Scan type : Progressive
Compression mode : Lossy
Bits/(Pixel*Frame) : 0.232
Stream size : 919 MiB (88%)
Title : RARBG.COM - African.Bambi.2007.BRRip.XviD.MP3-RARBG
Writing library : Lavc56.60.100

Audio
ID : 1
Format : MPEG Audio
Format version : Version 1
Format profile : Layer 3
Mode : Joint stereo
Mode extension : MS Stereo
Codec ID : 55
Codec ID/Hint : MP3
Duration : 1h 20mn
Bit rate mode : Constant
Bit rate : 192 Kbps
Channel(s) : 2 channels
Sampling rate : 48.0 KHz
Compression mode : Lossy
Stream size : 110 MiB (11%)
Alignment : Aligned on interleaves
Interleave, duration : 24 ms (0.58 video frame)
Interleave, preload duration : 24 ms
Title : RARBG.COM - African.Bambi.2007.
Screenshots 1080p BluRay




Screenshots 720p BluRay



Screenshots BRRip




Welcome to my - daily update!



Previous Miss Peregrine's Home for Peculiar Children / Дом странных детей Мисс Перегрин (2016)
Next We're the Millers (2013) [Extended Cut]